2 сезон

iTunes

1 сезон

1

iTunes

iTunes

iTunes

1 сезон

RePack

30

ИГРА 18+

pack

ВАЖНО

!!Акция!!

Alien_RageХит недели

RePack

MK11
pack

Забери бонус

RePack

jed

!!Акция!!

Alien_Rage

RePack

fifa19

RePack

Assassins Creed: Odyssey

RePack

NEED FOR SPEED™ PAYBACK

4 сезон

9 сезон

Бесстыжие 9 сезон

Все сериалы

все сериалы на PB.wtf

RePack

FAR CRY 5
  

Исчезнувшая / Gone Girl (Дэвид Финчер ) [2014, триллер, драма, детектив, BDRip 720p от _denis_100 / NNNB] DUB, 2xAVO + Original + Sub (3xRus,2xEng) pb.wtf

Исчезнувшая через торрент pb.wtf

Раздают: 1 [ 0 KB/s ]
Размер: 6.88 GB | Добавлен: 4 года 8 мес. назад | Торрент скачан:540 раз
Скачать  

21-12-2014 14:33 Исчезнувшая Скачать торрент  

Исчезнувшая / Gone Girl
«Что имеем — не храним, потерявши — плачем»


Год выпуска: 2014
Страна: США
Жанр: триллер, драма, детектив
Продолжительность: 02:29:02
Перевод: Дублированный - [Лицензия], Авторский одноголосый
Субтитры: русские (Forced), русские (Full, Panin), русские (Full, MartinaG), английские, английские (SDH)
Режиссер: Дэвид Финчер
В ролях: Бен Аффлек , Розамунд Пайк , Кэрри Кун , Ким Диккенс , Нил Патрик Харрис , Тайлер Перри , Патрик Фьюджит , Мисси Пайл , Эмили Ратажковски , Скут МакНэйри , Дэвид Кленнон , Лиза Бейнс
Описание::
Все было готово для празднования пятилетнего юбилея супружеской жизни, когда вдруг необъяснимо пропал один из виновников торжества. Остались следы борьбы в доме, кровь, которую явно пытались стереть, - и цепочка «ключей» в игре под названием «охота за сокровищами»; красивая, умная и невероятно изобретательная жена ежегодно устраивала ее для своего обожаемого мужа. И похоже, что эти «ключи» - размещенные ею тут и там странные записки и не менее странные безделушки - дают единственный шанс пролить свет на судьбу исчезнувшей. Вот только не придется ли «охотнику» в процессе поиска раскрыть миру и пару-тройку собственных малосимпатичных тайн?

Качество: BDRip 720p (исходник Blu-ray)
Контейнер (Расширение): MKV
Видео: 1280x534 (2.40:1), 4239 Кбит/сек, 23,976 кадр/сек, 0,259 Бит/[Пиксели*Кадры]
Аудио №1: русский / AC3 / 5.1 / 48 kHz / 448 kbps / 16 bit |Дублированный|
Аудио №2: русский / AC3 / 5.1 / 48 kHz / 640 kbps / 16 bit |Авторский, Ю. Сербин|
Аудио №3: русский / AC3 / 5.1 / 48 kHz / 640 kbps / 16 bit |Авторский, А. Матвеев|
Аудио №4: английский / AC3 / 5.1 / 48 kHz / 640 kbps / 16 bit
Навигация по главам(Чаптеры): естьАвтор рипа: Сообщество:

Код:

Format                                   : Matroska
Format version                           : Version 2
File size                                : 6.88 GiB
Duration                                 : 2h 29mn
Overall bit rate                         : 6 606 Kbps
Movie name                               : Gone Girl.(2014).BDRip.720p.[denis100]
Encoded date                             : UTC 2016-02-15 16:57:43
Writing application                      : mkvmerge v5.8.0 ('No Sleep / Pillow') built on Sep  2 2012 15:37:04
Writing library                          : libebml v1.2.3 + libmatroska v1.3.0

Video
ID                                       : 1
Format                                   : AVC
Format/Info                              : Advanced Video Codec
Format profile                           : High@L4.1
Format settings, CABAC                   : Yes
Format settings, ReFrames                : 11 frames
Codec ID                                 : V_MPEG4/ISO/AVC
Duration                                 : 2h 29mn
Bit rate                                 : 4 239 Kbps
Width                                    : 1 280 pixels
Height                                   : 534 pixels
Display aspect ratio                     : 2.40:1
Frame rate                               : 23.976 fps
Color space                              : YUV
Chroma subsampling                       : 4:2:0
Bit depth                                : 8 bits
Scan type                                : Progressive
Bits/(Pixel*Frame)                       : 0.259
Stream size                              : 4.27 GiB (62%)
Title                                    : Gone Girl.(2014).BDRip.720p.[denis100]
Writing library                          : x264 core 142 r2491 24e4fed
Encoding settings                        : cabac=1 / ref=11 / deblock=1:-3:-3 / analyse=0x3:0x133 / me=umh / subme=11 / psy=1 / psy_rd=1.00:0.10 / mixed_ref=1 / me_range=32 / chroma_me=1 / trellis=2 / 8x8dct=1 / cqm=0 / deadzone=21,11 / fast_pskip=0 / chroma_qp_offset=-3 / threads=6 / lookahead_threads=1 / sliced_threads=0 / nr=0 / decimate=1 / interlaced=0 / bluray_compat=0 / constrained_intra=0 / bframes=8 / b_pyramid=2 / b_adapt=2 / b_bias=0 / direct=3 / weightb=1 / open_gop=0 / weightp=2 / keyint=240 / keyint_min=23 / scenecut=40 / intra_refresh=0 / rc=2pass / mbtree=0 / bitrate=4239 / ratetol=1.0 / qcomp=0.60 / qpmin=0 / qpmax=69 / qpstep=4 / cplxblur=20.0 / qblur=0.5 / ip_ratio=1.40 / pb_ratio=1.30 / aq=1:0.90
Language                                 : English
Default                                  : Yes
Forced                                   : No

Audio #1
ID                                       : 2
Format                                   : AC-3
Format/Info                              : Audio Coding 3
Mode extension                           : CM (complete main)
Codec ID                                 : A_AC3
Duration                                 : 2h 29mn
Bit rate mode                            : Constant
Bit rate                                 : 448 Kbps
Channel(s)                               : 6 channels
Channel positions                        : Front: L C R, Side: L R, LFE
Sampling rate                            : 48.0 KHz
Bit depth                                : 16 bits
Compression mode                         : Lossy
Stream size                              : 478 MiB (7%)
Title                                    : Дублированный
Language                                 : Russian
Default                                  : Yes
Forced                                   : No

Audio #2
ID                                       : 3
Format                                   : AC-3
Format/Info                              : Audio Coding 3
Mode extension                           : CM (complete main)
Codec ID                                 : A_AC3
Duration                                 : 2h 29mn
Bit rate mode                            : Constant
Bit rate                                 : 640 Kbps
Channel(s)                               : 6 channels
Channel positions                        : Front: L C R, Side: L R, LFE
Sampling rate                            : 48.0 KHz
Bit depth                                : 16 bits
Compression mode                         : Lossy
Stream size                              : 682 MiB (10%)
Title                                    : Авторский, Ю. Сербин
Language                                 : Russian
Default                                  : No
Forced                                   : No

Audio #3
ID                                       : 4
Format                                   : AC-3
Format/Info                              : Audio Coding 3
Mode extension                           : CM (complete main)
Codec ID                                 : A_AC3
Duration                                 : 2h 29mn
Bit rate mode                            : Constant
Bit rate                                 : 640 Kbps
Channel(s)                               : 6 channels
Channel positions                        : Front: L C R, Side: L R, LFE
Sampling rate                            : 48.0 KHz
Bit depth                                : 16 bits
Compression mode                         : Lossy
Stream size                              : 682 MiB (10%)
Title                                    : Авторский, А. Матвеев
Language                                 : Russian
Default                                  : No
Forced                                   : No

Audio #4
ID                                       : 5
Format                                   : AC-3
Format/Info                              : Audio Coding 3
Mode extension                           : CM (complete main)
Codec ID                                 : A_AC3
Duration                                 : 2h 29mn
Bit rate mode                            : Constant
Bit rate                                 : 640 Kbps
Channel(s)                               : 6 channels
Channel positions                        : Front: L C R, Side: L R, LFE
Sampling rate                            : 48.0 KHz
Bit depth                                : 16 bits
Compression mode                         : Lossy
Stream size                              : 682 MiB (10%)
Language                                 : English
Default                                  : No
Forced                                   : No

Text #1
ID                                       : 6
Format                                   : UTF-8
Codec ID                                 : S_TEXT/UTF8
Codec ID/Info                            : UTF-8 Plain Text
Title                                    : Forced
Language                                 : Russian
Default                                  : Yes
Forced                                   : No

Text #2
ID                                       : 7
Format                                   : UTF-8
Codec ID                                 : S_TEXT/UTF8
Codec ID/Info                            : UTF-8 Plain Text
Title                                    : Full, Panin
Language                                 : Russian
Default                                  : No
Forced                                   : No

Text #3
ID                                       : 8
Format                                   : UTF-8
Codec ID                                 : S_TEXT/UTF8
Codec ID/Info                            : UTF-8 Plain Text
Title                                    : Full, MartinaG
Language                                 : Russian
Default                                  : No
Forced                                   : No

Text #4
ID                                       : 9
Format                                   : UTF-8
Codec ID                                 : S_TEXT/UTF8
Codec ID/Info                            : UTF-8 Plain Text
Language                                 : English
Default                                  : No
Forced                                   : No

Text #5
ID                                       : 10
Format                                   : UTF-8
Codec ID                                 : S_TEXT/UTF8
Codec ID/Info                            : UTF-8 Plain Text
Title                                    : SDH
Language                                 : English
Default                                  : No
Forced                                   : No

Menu
00:00:00.000                             : en:00:00:00.000
00:03:27.958                             : en:00:03:27.958
00:06:57.834                             : en:00:06:57.834
00:08:19.541                             : en:00:08:19.541
00:11:58.593                             : en:00:11:58.593
00:15:01.484                             : en:00:15:01.484
00:18:13.509                             : en:00:18:13.509
00:19:56.737                             : en:00:19:56.737
00:21:43.093                             : en:00:21:43.093
00:23:53.849                             : en:00:23:53.849
00:28:34.880                             : en:00:28:34.880
00:31:32.516                             : en:00:31:32.516
00:34:39.077                             : en:00:34:39.077
00:40:51.199                             : en:00:40:51.199
00:44:37.383                             : en:00:44:37.383
00:46:57.815                             : en:00:46:57.815
00:49:19.707                             : en:00:49:19.707
00:54:13.333                             : en:00:54:13.333
01:00:06.686                             : en:01:00:06.686
01:03:16.209                             : en:01:03:16.209
01:06:08.715                             : en:01:06:08.715
01:12:56.998                             : en:01:12:56.998
01:15:13.008                             : en:01:15:13.008
01:19:54.456                             : en:01:19:54.456
01:21:56.120                             : en:01:21:56.120
01:27:24.156                             : en:01:27:24.156
01:28:12.537                             : en:01:28:12.537
01:33:28.561                             : en:01:33:28.561
01:39:34.510                             : en:01:39:34.510
01:46:26.714                             : en:01:46:26.714
01:50:46.515                             : en:01:50:46.515
01:56:40.619                             : en:01:56:40.619
01:59:06.097                             : en:01:59:06.097
02:02:23.127                             : en:02:02:23.127
02:05:35.069                             : en:02:05:35.069
02:12:30.818                             : en:02:12:30.818
02:16:12.790                             : en:02:16:12.790
02:19:56.930                             : en:02:19:56.930
02:22:42.304                             : en:02:22:42.304
02:24:15.647                             : en:02:24:15.647

x264 [info]: frame I:2371 Avg QP:11.04 size:146414
x264 [info]: frame P:48568 Avg QP:13.48 size: 43209
x264 [info]: frame B:163454 Avg QP:15.20 size: 13994
pb.wtf



Скачать Исчезнувшая через торрент http://i73.fastpic.ru/big/2016/0215/d4/79c9d822d66eb752032ab41e4981b9d4.png Скачать фильм Исчезнувшая через торрент бесплантно в хорошем качестве Описание::Все было готово для празднования пятилетнего юбилея супружеской жизни, когда вдруг необъяснимо пропал один из виновников ... 10 10 31
Info! Золотая раздача, скачанное не засчитывается.
Торрент: Зарегистрирован [2016-02-15 17:19] · скачан: 540 раз
Статус: √ проверено
Размер: 6.88 GB
Как cкачать? Как скачать Исчезнувшая через торрент | qTorrent

% Раздел Тема Автор DL S | L
Фильмы (WEB-DL 720p, 1080p) [ 11.32 GB ] Исчезнувшая / Gone Girl [2014 WEB-DL 1080p ] DUB [ ] +2xAVO bober100 Скачать
2 | 0
Фильмы 2014 [DVDrip, WEB-DLRip, HDrip] [ 1.45 GB ] Исчезнувшая / Gone Girl [2014 HDRip] DUB [ R5] bober100 Скачать
2 | 1
Фильмы 2014 [DVDrip, WEB-DLRip, HDrip] [ 1.46 GB ] Исчезнувшая / Gone Girl [2014 WEB-DLRip - / ] _KaisiK_ Скачать
3 | 0
Фильмы 2014 [DVDrip, WEB-DLRip, HDrip] [ 2.18 GB ] Исчезнувшая / Gone Girl [2014 BDRip-AVC] DUB potroks Скачать
1 | 0
Фильмы [HD 720p, 1080p] (Хороший звук DUB, MVO) [ 18.38 GB ] Исчезнувшая / Gone Girl [2014 BDRip 1080p] 2xDub + 2xAVO + Original + Sub Seedtank Скачать
1 | 0
Фильмы с авторской озвучкой [ 2.25 GB ] Исчезнувшая / Gone Girl [2014 BDRip] [AVO] killermax2013 Скачать
1 | 0
Фильмы (Blu-ray, BD-Remux, HDDVD) [ 49.81 GB ] Исчезнувшая / Gone Girl [2014 Blu-Ray Remux 1080p] 2x[Dub CEE] + 2x[AVO] killermax2013 Скачать
1 | 0


Последний раз редактировалось: _denis_100 (2016-02-15 17:19), всего редактировалось 1 раз

28-11-2019 20:33  

Отключить всю рекламу на сайте

15-02-2016 17:23 Исчезнувшая Скачать торрент  

Обновил. Добавил переводы Сербина и Матвеева + субтитрыpb.wtf



15-02-2016 17:58 Исчезнувшая Скачать торрент  

Занимательная киношка, придумка необычная )pb.wtf



    Дорогой пользователь! Огромная просьба, поблагодарите релизера, оцените раздачу и оставьте свои комментарий, если Вы скачали Исчезнувшая через торрент бесплатно! Внесите свою лепту в развитие PiratBit!
    Комментировать посты могут только пользователи прошедшие не сложную регистрацию
    Показать сообщения:    

    Исчезнувшая через торрент
    Скачать бесплатно Исчезнувшая
    Исчезнувшая скачать торрент
    Исчезнувшая смотреть онлайн
    Cкачать фильм Исчезнувшая бесплатно
    Исчезнувшая скачать торрент в хорошем качестве
    Исчезнувшая смотреть онлайн бесплатно в хорошем качестве


    Вы не можете начинать темы
    Вы не можете отвечать на сообщения
    Вы не можете редактировать свои сообщения
    Вы не можете удалять свои сообщения
    Вы не можете голосовать в опросах
    Вы не можете прикреплять файлы к сообщениям
    Вы можете скачивать файлы