Доктор Стрэндж

Лицензия

Добыча

Дубляж

Уэнсдэй

1 сезон

Тор

Дубляж

В эфире

Дубляж

Там, где раки поют

MVO

Властелин колец

1 сезон

Deluxe

pack

Рекомендуем

30

Пиратка

ВАЖНО

ВАЖНО

Ghostwire

Пиратка

jed

RePack

nioh2

RePack

RDR2

RePack

NEED FOR SPEED™ PAYBACK

RePack

скачать торрент

Кинопоиск HD

Острые козырьки 6 сезон

6 сезон

FAR CRY 6

RePack

скачать торрент

Лицензия

скачать торрент

MVO

1

1 сезон

скачать торрент

1 сезон

скачать торрент

Лицензия

  

История дельфина 2 / Dolphin Tale 2 (Чарльз Мартин Смит) [2014 г., драма, семейный, BDRip, Дубляж "Лицензия"]

История дельфина 2 через торрент pb.wtf

Размер: 2.18 GB | Добавлен: 7 лет 11 мес. назад | Торрент скачан:178 раз
Смотреть онлайн | Скачать   

21-12-2014 18:45 История дельфина 2 Скачать торрент  

История дельфина 2 / Dolphin Tale 2
Год выпуска: 2014
Страна: США / Alcon Entertainment, Boxing Cat Films, Color Force
Жанр: драма, семейный
Продолжительность: 01:47:14
Перевод: Дубляж (Лицензия)

Режиссер: Чарльз Мартин Смит



В ролях: Морган Фриман, Эшли Джадд, Гарри Конник мл., Крис Кристофферсон, Нэйтан Гэмбл, Джулия Винтер, Кози Цуельсдорфф, Остин Стоуэлл, Джулиана Харкви, Остин Хигсмит

Описание: Прошло несколько лет после событий, описываемых в первом фильме. Суррогатная мать Уинтер, старая дельфиниха по имени Панама, скончалась. В итоге Уинтер осталась одна, а по законам Министерства сельского хозяйства США дельфинов нельзя содержать по одному. Чтобы Уинтер не перевезли в другой аквариум, команде морского госпиталя придется найти ей компаньона...

Качество: BDRip (Рип с Blu-ray CEE 1080p AVC DD5.1)
Формат: AVI
Видео кодек: XVID
Аудио кодек: AC3
Видео: 720x400 (1.80:1), 23.976 fps, XviD build 50 ~2452 kbps avg, 0.35 bit/pixel
Аудио: 48 kHz, AC3 Dolby Digital, 3/2 (L,C,R,l,r) + LFE ch, ~448 kbps


Общее
Полное имя : F:\кино\История дельфина 2.2014.BDRip.avi
Формат : AVI
Формат/Информация : Audio Video Interleave
Профиль формата : OpenDML
Размер файла : 2,18 Гбайт
Продолжительность : 1 ч. 47 м.
Общий поток : 2907 Кбит/сек
Программа кодирования : VirtualDubMod 1.5.10.3 | www.virtualdub-fr.org || (build 2550/release)
Библиотека кодирования : VirtualDubMod build 2550/release

Видео
Идентификатор : 0
Формат : MPEG-4 Visual
Профиль формата : Advanced [email protected]
Параметр BVOP формата : 2
Параметр QPel формата : Нет
Параметр GMC формата : Без точки перехода
Параметр матрицы формата : Default (H.263)
Идентификатор кодека : XVID
Идентификатор кодека/Подсказка : XviD
Продолжительность : 1 ч. 47 м.
Битрейт : 2447 Кбит/сек
Ширина : 720 пикселей
Высота : 400 пикселей
Соотношение сторон : 16:9
Частота кадров : 23,976 кадра/сек
Цветовое пространство : YUV
Субдискретизация насыщенности : 4:2:0
Битовая глубина : 8 бит
Тип развёртки : Прогрессивная
Метод сжатия : С потерями
Бит/(Пиксели*Кадры) : 0.354
Размер потока : 1,83 Гбайт (84%)
Библиотека кодирования : XviD 1.2.1 (UTC 2008-12-04)

Аудио
Идентификатор : 1
Формат : AC-3
Формат/Информация : Audio Coding 3
Расширение режима : CM (complete main)
Параметр Endianness формата : Big
Идентификатор кодека : 2000
Продолжительность : 1 ч. 47 м.
Вид битрейта : Постоянный
Битрейт : 448 Кбит/сек
Каналы : 6 каналов
Расположение каналов : Front: L C R, Side: L R, LFE
Частота : 48,0 КГц
Битовая глубина : 16 бит
Метод сжатия : С потерями
Размер потока : 344 Мбайт (15%)
Выравнивание : Разделение по промежуткам
Продолжительность промежутка : 42 мс. (1,00 видеокадр)
Время предзагрузки промежутка : 500 мс.




Скачать История дельфина 2 через торрент https://pic1.kartinco.top/images/81/f99ho.jpg Скачать, смотреть онлайн История дельфина 2 бесплантно в хорошем качестве Описание: Прошло несколько лет после событий, описываемых в первом фильме. Суррогатная мать Уинтер, старая дельфиниха по имени Панама, ... 8.2 10 11
Торрент: Зарегистрирован [2014-12-21 18:45] · скачан: 178 раз
Статус: √ проверено
Размер: 2.18 GB
Как cкачать? Как скачать История дельфина 2 через торрент | UTorrent

% Раздел Тема Автор DL S | L
Фильмы [HD 720p, 1080p] (Хороший звук DUB, MVO) [ 14.91 GB ] История дельфина 2 / Dolphin Tale 2 | Лицензия | 1080p, Dub, Лицензия Seedtank Скачать
1 | 1
Фильмы 2014 [DVDrip, WEB-DLRip, HDrip] [ 2.91 GB ] История дельфина 2 / Dolphin Tale 2 | Лицензия | BDRip-AVC potroks Скачать
1 | 0
Фильмы [HD 720p, 1080p] (Хороший звук DUB, MVO) [ 4.93 GB ] История дельфина 2 / Dolphin Tale 2 | | 720p XLASER Скачать
1 | 0
Фильмы 2014 [DVDrip, WEB-DLRip, HDrip] [ 2.05 GB ] История дельфина 2 / Dolphin Tale 2 | Лицензия | HDRip, Дубляж - Лицензия / iTunes _KaisiK_ Скачать
1 | 0

28-11-2019 20:33  


Отключить вcю реклaмy на сайте, в т.ч. и в плеере онлайн просмотра!

    Дорогой пользователь! Огромная просьба, поблагодарите релизера, оцените раздачу и оставьте свои комментарий, если Вы скачали История дельфина 2 через торрент бесплатно!!
    Комментировать посты могут только пользователи прошедшие не сложную регистрацию
    Показать сообщения:    


    История дельфина 2 через торрент
    Скачать бесплатно История дельфина 2
    История дельфина 2 скачать торрент
    История дельфина 2 смотреть онлайн
    Cкачать фильм История дельфина 2 бесплатно
    История дельфина 2 скачать торрент в хорошем качестве
    История дельфина 2 смотреть онлайн бесплатно в хорошем качестве
    Вы не можете начинать темы
    Вы не можете отвечать на сообщения
    Вы не можете редактировать свои сообщения
    Вы не можете удалять свои сообщения
    Вы не можете голосовать в опросах
    Вы не можете прикреплять файлы к сообщениям
    Вы можете скачивать файлы
    История дельфина 2 / Dolphin Tale 2 [2014 г., драма, семейный, BDRip, Дубляж "Лицензия"] смотреть онлайн, скачать торрент picoco.icu