1 сезон

3 сезон

iTunes

1

Line

MVO

iTunes

13

1 сезон

RePack

30

Deluxe

pack

Лицензия

ВАЖНО

ИГРА 18+

pack

RePack

MK11

RePack

jed

RePack

fifa19

RePack

RDR2

RePack

NEED FOR SPEED™ PAYBACK

4 сезон

9 сезон

Бесстыжие 9 сезон

Все сериалы

все сериалы на PB.wtf

RePack

FAR CRY 5

Anonymous, добрый вечер, мы катастрофически не успеваем собрать деньги на оплату серверов, помогите нам пожалуйста 5,10,15р., для нас важна любая помощь . В качестве благодарности мы отключим Вам всю рекламу на сайте (укажите свой ник в строку Ваше имя)!

×
  
Magnet ссылка

Люблю твою жену / The Right Kind of Wrong (Джеримайя С. Чечик / Jeremiah S. Chechik) [2013, мелодрама, комедия, DVD5] R5 pb.wtf

Люблю твою жену через торрент pb.wtf

Размер: 4.09 GB | Добавлен: 6 лет 7 мес. назад | Торрент скачан:21 раз
Скачать  

21-12-2014 19:28 Люблю твою жену Скачать торрент  


Люблю твою жену / The Right Kind of Wrong
«Он встретил любовь всей своей жизни... на её свадьбе»
Страна: Канада
Студия: Nomadic Pictures, Serendipity Point Films
Жанр: мелодрама, комедия
Год выпуска: 2013
Мировая премьера: 12 сентября 2013
Российская премьера: 21 августа 2014
Дата выхода DVD: 9 декабря 2014
Продолжительность: 01:32:54
Перевод: Профессиональный (дублированный) [Лицензия]
Cубтитры: нет
Оригинальная аудиодорожка: нет
Режиссер: Джеримайя С. Чечик / Jeremiah S. Chechik
В ролях: Райан Квантен, Сара Каннинг, Райан МакПартлин, Кристен Хагер, Джеймс А. Вудс, Рауль Банеджа, Дженнифер Бэкстер, Уилл Сассо, Кэтрин О’Хара, Мария Менунос
Описание: Это история о писателе Лео, который вынужден мыть посуду, чтобы свести концы с концами. Помимо этого его бывшая жена выставляет все его многочисленные недостатки на суд общественности в своем супер-знаменитом блоге «Почему ты мудак». Но вот Лео встречает Коллет — девушку своей мечты. Теперь он сделает все, чтобы завоевать ее и заставит весь мир понять, как все заблуждались на его счет.
Бонусы: нет

Релиз группы:
Качество: DVD5 R5
Формат: DVD-Video
Видео кодек: MPEG2
Аудио кодек: AC3
Видео: PAL 16:9 (720x576(0.530)) MPEG Video, 25,000 кадр/сек, 5494 Кбит/сек
Аудио: Russian (Dolby AC3, 6 ch) 448 Кбит/сек, 48,0 КГц



Title: Рабочий
Size: 4.09 Gb ( 4 293 756 KBytes ) - DVD-5
Enabled regions: 1, 2, 3, 4, 5, 6, 7, 8

VTS_01 :
Play Length: 00:00:19
Video: PAL 16:9 (720x576) VBR, Auto Pan&Scan, Auto Letterboxed
Audio:
Not specified (Dolby AC3, 2 ch)

VTS_02 :
Play Length: 01:32:54
Video: PAL 16:9 (720x576) VBR, Auto Pan&Scan, Auto Letterboxed
Audio:
Not specified (Dolby AC3, 6 ch)

Menu Video:
PAL 16:9 (720x576) VBR
Auto Pan&Scan, Auto Letterboxed
Menu Subtitles:
Not specified
Menu English Language Unit :
Root Menu
Общее
Полное имя : F:\Новинки 2014\Ljublju.tvoju.zhenu.2013.DVD5\VIDEO_TS\VTS_02_1.VOB
Формат : MPEG-PS
Размер файла : 1024 Мбайт
Продолжительность : 23 м.
Режим общего битрейта : Переменный
Общий поток : 6062 Кбит/сек

Видео
Идентификатор : 224 (0xE0)
Формат : MPEG Video
Версия формата : Version 2
Профиль формата : Main@Main
Параметр BVOP формата : Да
Параметр матрицы формата : Выборочная
Параметр GOP формата : Variable
Format_Settings_PictureStructure : Frame
Продолжительность : 23 м.
Вид битрейта : Переменный
Битрейт : 5494 Кбит/сек
Максимальный битрейт : 9000 Кбит/сек
Ширина : 720 пикселей
Высота : 576 пикселей
Соотношение сторон : 16:9
Частота кадров : 25,000 кадров/сек
Стандарт вещания : PAL
Цветовое пространство : YUV
Субдискретизация насыщенности : 4:2:0
Битовая глубина : 8 бит
Тип развёртки : Чересстрочная
Порядок развёртки : Верхнее поле первое
Метод сжатия : С потерями
Бит/(Пиксели*Кадры) : 0.530
Временной код первого кадра : 00:00:00:00
Оригинал временного кода : Group of pictures header
Размер потока : 928 Мбайт (91%)

Аудио
Идентификатор : 189 (0xBD)-128 (0x80)
Формат : AC-3
Формат/Информация : Audio Coding 3
Расширение режима : CM (complete main)
Параметр Endianness формата : Big
Режим смешивания : DVD-Video
Продолжительность : 23 м.
Вид битрейта : Постоянный
Битрейт : 448 Кбит/сек
Каналы : 6 каналов
Расположение каналов : Front: L C R, Side: L R, LFE
Частота : 48,0 КГц
Битовая глубина : 16 бит
Метод сжатия : С потерями
Размер потока : 75,7 Мбайт (7%)










pb.wtf



Скачать Люблю твою жену через торрент http://i64.fastpic.ru/big/2014/1221/c8/f468dfdbb9fefa94e75395bee0d1d2c8.png Скачать фильм Люблю твою жену через торрент бесплантно в хорошем качестве Описание: Это история о писателе Лео, который вынужден мыть посуду, чтобы свести концы с концами. Помимо этого его бывшая жена выставляет ... 10 10 2
Торрент: Зарегистрирован [2014-12-21 19:28] · скачан: 21 раз
Статус: √ проверено
Размер: 4.09 GB
Как cкачать? Как скачать Люблю твою жену через торрент | UTorrent

28-11-2019 20:33  

Отключить всю рекламу на сайте

    Дорогой пользователь! Огромная просьба, поблагодарите релизера, оцените раздачу и оставьте свои комментарий, если Вы скачали Люблю твою жену через торрент бесплатно! Внесите свою лепту в развитие PiratBit!
    Комментировать посты могут только пользователи прошедшие не сложную регистрацию
    Показать сообщения:    

    Люблю твою жену через торрент
    Скачать бесплатно Люблю твою жену
    Люблю твою жену скачать торрент
    Люблю твою жену смотреть онлайн
    Cкачать фильм Люблю твою жену бесплатно
    Люблю твою жену скачать торрент в хорошем качестве
    Люблю твою жену смотреть онлайн бесплатно в хорошем качестве


    Вы не можете начинать темы
    Вы не можете отвечать на сообщения
    Вы не можете редактировать свои сообщения
    Вы не можете удалять свои сообщения
    Вы не можете голосовать в опросах
    Вы не можете прикреплять файлы к сообщениям
    Вы можете скачивать файлы