Ссылка на приватное зеркало нашего сайта всего за 1$. Внимание количество ограничено!!!

2 сезон

iTunes

1 сезон

1

iTunes

iTunes

iTunes

1 сезон

RePack

30

ИГРА 18+

pack

ВАЖНО

!!Акция!!

Alien_RageХит недели

RePack

MK11
pack

Забери бонус

RePack

jed

!!Акция!!

Alien_Rage

RePack

fifa19

RePack

Assassins Creed: Odyssey

RePack

NEED FOR SPEED™ PAYBACK

4 сезон

9 сезон

Бесстыжие 9 сезон

Все сериалы

все сериалы на PB.wtf

RePack

FAR CRY 5
  

Клерки 2 / Clerks II (Кевин Смит) [2006, комедия, HDDVDRip 720p] DUB, DVO, VO pb.wtf

Клерки 2 через торрент pb.wtf

Размер: 7.18 GB | Добавлен: 5 лет 10 мес. назад | Торрент скачан:156 раз
Скачать  

22-12-2014 08:07 Клерки 2 Скачать торрент  

Клерки 2 / Clerks II

Год выпуска: 2006
Страна: США
Жанр: комедия
Продолжительность: 01:37:32
Перевод: дублированный, профессиональный двухголосый, любительский одноголосый
Субтитры: русские (с ненормативной лексикой), английские

Режиссёр: Кевин Смит

В ролях: Брайан О’Хэллоран, Джефф Андерсон, Розарио Доусон, Дженнифер Швалбах Смит, Джейсон Мьюз, Кевин Смит, Джэйк Ричардсон, Итэн Сапли, Рэйчел Ларратт, Шеннон Ларратт, Бен Аффлек, Сара Олт, Лалида Суджавасин, Тревор Ферман

Описание: Лучшие друзья Данте Хикс и Рэндал Грэйвс, работающие в маленьком супермаркете в Нью-Джерси, к 33 годам добились того, чего хотели. Во-первых, они работают вместе, во-вторых, бездельничают целыми днями, а в-третьих, получают за это зарплату. Но когда их любимый магазинчик сгорает, Данте и Рэндалу приходится задуматься о новой работе. Несмотря на дурные привычки и безудержную любовь к веселью, друзьям всё-таки удаётся устроиться в закусочную «У Муби», где уже работают придурковатый Элайас и невероятно сексуальная Бекки. Когда же Данте объявляет о своем намерении покинуть Нью-Джерси и жениться на Эмме Бантинг, его сослуживцы устраивают ему пышные проводы...



Качество: BDRip 720p Сравнение с исходником
Формат: MKV
Видео кодек: H.264
Аудио кодек: AC3
Видео: 1280x720, 8604 kbps, 23.976 кадра/с, 0.389 bpp
Аудио 1: русский, AC3, 448 kbps, 6 ch, 48 kHz [дублированный]
Аудио 2: русский, AC3, 448 kbps, 6 ch, 48 kHz [профессиональный двухголосый, Tycoon]
Аудио 3: русский, AC3, 384 kbps, 6 ch, 48 kHz [любительский, Cyberpunk (с ненормативной лексикой)]
Аудио 4: английский, AC3, 448 kbps, 6 ch, 48 kHz [оригинал]
Общее
Уникальный идентификатор : 251944588932172973863307126250506753388 (0xBD8AC347D95F98E3A7102F62D2E3156C)
Полное имя : D:VideoKlerki 2.2006.HDDVDRip.720p.mkv
Формат : Matroska
Версия формата : Version 4 / Version 2
Размер файла : 7,18 Гбайт
Продолжительность : 1 ч. 37 м.
Общий поток : 10,5 Мбит/сек
Дата кодирования : UTC 2014-12-22 04:12:47
Программа кодирования : mkvmerge v7.4.0 ('Circles') 64bit built on Dec 12 2014 12:19:56
Библиотека кодирования : libebml v1.3.0 + libmatroska v1.4.1
DURATION : 01:36:19.773000000
NUMBER_OF_FRAMES : 2047
NUMBER_OF_BYTES : 62185
_STATISTICS_WRITING_APP : mkvmerge v7.4.0 ('Circles') 64bit built on Dec 12 2014 12:19:56
_STATISTICS_WRITING_DATE_UTC : 2014-12-22 04:12:47
_STATISTICS_TAGS : BPS DURATION NUMBER_OF_FRAMES NUMBER_OF_BYTES

Видео
Идентификатор : 1
Формат : AVC
Формат/Информация : Advanced Video Codec
Профиль формата : High@L4.1
Параметр CABAC формата : Да
Параметр ReFrames формата : 9 кадров
Идентификатор кодека : V_MPEG4/ISO/AVC
Продолжительность : 1 ч. 37 м.
Битрейт : 8604 Кбит/сек
Ширина : 1280 пикселей
Высота : 720 пикселей
Соотношение сторон : 16:9
Режим частоты кадров : Постоянный
Частота кадров : 23,976 кадра/сек
Цветовое пространство : YUV
Субдискретизация насыщенности : 4:2:0
Битовая глубина : 8 бит
Тип развёртки : Прогрессивная
Бит/(Пиксели*Кадры) : 0.389
Размер потока : 5,86 Гбайт (82%)
Заголовок : HDDVDRip -- STarankov
Библиотека кодирования : x264 core 142 r2431 ac76440
Настройки программы : cabac=1 / ref=9 / deblock=1:-1:-1 / analyse=0x3:0x113 / me=umh / subme=10 / psy=1 / psy_rd=1.00:0.15 / mixed_ref=1 / me_range=32 / chroma_me=1 / trellis=2 / 8x8dct=1 / cqm=0 / deadzone=21,11 / fast_pskip=1 / chroma_qp_offset=-3 / threads=6 / lookahead_threads=1 / sliced_threads=0 / nr=0 / decimate=1 / interlaced=0 / bluray_compat=0 / constrained_intra=0 / bframes=8 / b_pyramid=2 / b_adapt=2 / b_bias=0 / direct=3 / weightb=1 / open_gop=0 / weightp=2 / keyint=230 / keyint_min=23 / scenecut=40 / intra_refresh=0 / rc_lookahead=40 / rc=crf / mbtree=0 / crf=18.0 / qcomp=0.60 / qpmin=0 / qpmax=69 / qpstep=4 / vbv_maxrate=40000 / vbv_bufsize=50000 / crf_max=0.0 / nal_hrd=none / filler=0 / ip_ratio=1.40 / pb_ratio=1.30 / aq=1:1.00
Язык : English
Default : Да
Forced : Нет
DURATION : 01:37:32.013000000
NUMBER_OF_FRAMES : 140308
NUMBER_OF_BYTES : 6444806671
_STATISTICS_WRITING_APP : mkvmerge v7.4.0 ('Circles') 64bit built on Dec 12 2014 12:19:56
_STATISTICS_WRITING_DATE_UTC : 2014-12-22 04:12:47
_STATISTICS_TAGS : BPS DURATION NUMBER_OF_FRAMES NUMBER_OF_BYTES

Аудио #1
Идентификатор : 2
Формат : AC-3
Формат/Информация : Audio Coding 3
Расширение режима : CM (complete main)
Параметр Endianness формата : Big
Идентификатор кодека : A_AC3
Продолжительность : 1 ч. 37 м.
Вид битрейта : Постоянный
Битрейт : 448 Кбит/сек
Каналы : 6 каналов
Расположение каналов : Front: L C R, Side: L R, LFE
Частота : 48,0 КГц
Битовая глубина : 16 бит
Метод сжатия : С потерями
Размер потока : 313 Мбайт (4%)
Заголовок : DUB
Язык : Russian
Default : Да
Forced : Нет

Аудио #2
Идентификатор : 3
Формат : AC-3
Формат/Информация : Audio Coding 3
Расширение режима : CM (complete main)
Параметр Endianness формата : Big
Идентификатор кодека : A_AC3
Продолжительность : 1 ч. 37 м.
Вид битрейта : Постоянный
Битрейт : 448 Кбит/сек
Каналы : 6 каналов
Расположение каналов : Front: L C R, Side: L R, LFE
Частота : 48,0 КГц
Битовая глубина : 16 бит
Метод сжатия : С потерями
Размер потока : 313 Мбайт (4%)
Заголовок : DVO (Tycoon)
Язык : Russian
Default : Нет
Forced : Нет

Аудио #3
Идентификатор : 4
Формат : AC-3
Формат/Информация : Audio Coding 3
Расширение режима : CM (complete main)
Параметр Endianness формата : Big
Идентификатор кодека : A_AC3
Продолжительность : 1 ч. 37 м.
Вид битрейта : Постоянный
Битрейт : 384 Кбит/сек
Каналы : 6 каналов
Расположение каналов : Front: L C R, Side: L R, LFE
Частота : 48,0 КГц
Битовая глубина : 16 бит
Метод сжатия : С потерями
Размер потока : 268 Мбайт (4%)
Заголовок : VO (Cyberpunk, любительский одноголосый, с ненормативной лексикой)
Язык : Russian
Default : Нет
Forced : Нет

Аудио #4
Идентификатор : 5
Формат : AC-3
Формат/Информация : Audio Coding 3
Расширение режима : CM (complete main)
Параметр Endianness формата : Big
Идентификатор кодека : A_AC3
Продолжительность : 1 ч. 37 м.
Вид битрейта : Постоянный
Битрейт : 448 Кбит/сек
Каналы : 6 каналов
Расположение каналов : Front: L C R, Side: L R, LFE
Частота : 48,0 КГц
Битовая глубина : 16 бит
Метод сжатия : С потерями
Размер потока : 313 Мбайт (4%)
Заголовок : Original
Язык : English
Default : Нет
Forced : Нет

Текст #1
Идентификатор : 6
Формат : UTF-8
Идентификатор кодека : S_TEXT/UTF8
Идентификатор кодека/Информация : UTF-8 Plain Text
Заголовок : русский
Язык : Russian
Default : Нет
Forced : Нет

Текст #2
Идентификатор : 7
Формат : UTF-8
Идентификатор кодека : S_TEXT/UTF8
Идентификатор кодека/Информация : UTF-8 Plain Text
Заголовок : английские
Default : Нет
Forced : Нет
pb.wtf



Скачать Клерки 2 через торрент http://i63.fastpic.ru/big/2014/1222/d8/781bd2b4b41271d785088005c68d33d8.jpg Скачать фильм Клерки 2 через торрент бесплантно в хорошем качестве Описание: Лучшие друзья Данте Хикс и Рэндал Грэйвс, работающие в маленьком супермаркете в Нью-Джерси, к 33 годам добились того, чего ... 10 10 5
Торрент: Зарегистрирован [2014-12-22 08:07] · скачан: 156 раз
Статус: √ проверено
Размер: 7.18 GB
Как cкачать? Как скачать Клерки 2 через торрент | qTorrent

% Раздел Тема Автор DL S | L
Фильмы [HD 720p, 1080p] (Хороший звук DUB, MVO) [ 11.14 GB ] Клерки 2 / Clerks II [2006 HDDVDRip 1080p] DUB DVO VO msltel Скачать
2 | 0
Фильмы 2006-2008 [ 2.17 GB ] Клерки 2 / Clerks II [2006 DVDRip-AVCDUB+MVO+ Original Eng+ RusSub + EngSub] Assasinca Скачать
1 | 0

28-11-2019 20:33  

Отключить всю рекламу на сайте

23-12-2014 11:36 Клерки 2 Скачать торрент  

такое г...но.pb.wtf



    Дорогой пользователь! Огромная просьба, поблагодарите релизера, оцените раздачу и оставьте свои комментарий, если Вы скачали Клерки 2 через торрент бесплатно! Внесите свою лепту в развитие PiratBit!
    Комментировать посты могут только пользователи прошедшие не сложную регистрацию
    Показать сообщения:    

    Клерки 2 через торрент
    Скачать бесплатно Клерки 2
    Клерки 2 скачать торрент
    Клерки 2 смотреть онлайн
    Cкачать фильм Клерки 2 бесплатно
    Клерки 2 скачать торрент в хорошем качестве
    Клерки 2 смотреть онлайн бесплатно в хорошем качестве


    Вы не можете начинать темы
    Вы не можете отвечать на сообщения
    Вы не можете редактировать свои сообщения
    Вы не можете удалять свои сообщения
    Вы не можете голосовать в опросах
    Вы не можете прикреплять файлы к сообщениям
    Вы можете скачивать файлы