Anonymous, доброе утро, присоединяйтесь к нам в Telegram!, здесь всегда актуальный адрес сайта, оперативная поддержка и многое другое!

>

5.6

iTunes

7.4

iTunes

5.7

MVO

1

7.7

1 сезон

6.8

iTunes

7.3

1 сезон

13

6.7

1 сезон

8.3

RePack

30

ULTIMATE

pack

9.9

Лицензия

ВАЖНО

ИГРА 18+

pack

7.3

RePack

MK11

7.7

RePack

jed

7.8

RePack

fifa19

8.5

RePack

RDR2

RePack

NEED FOR SPEED™ PAYBACK

4 сезон

9 сезон

Бесстыжие 9 сезон

Все сериалы

все сериалы на PB.wtf

RePack

FAR CRY 5

Anonymous, доброе утро, мы катастрофически не успеваем собрать деньги на оплату серверов, помогите нам пожалуйста 5,10,15р., для нас важна любая помощь . В качестве благодарности мы отключим Вам всю рекламу на сайте (укажите свой ник в строку Ваше имя)!

×
  
Magnet ссылка

Призрак в доспехах: Синдром одиночки / Kokaku kidotai: Stand Alone Complex / Сезон:1-2 + Сообщество крепкого государства / Серии: 1-52 [2002-2006, Япония, аниме, мультфильм, фантастика, BDRip 1080p / 60 FPS, MVO] pb.wtf

Призрак в доспехах: Синдром одиночки через торрент pb.wtf

Раздают: 1 [ 0 KB/s ]
Размер: 110.75 GB | Добавлен: 6 лет 9 мес. назад | Торрент скачан:107 раз
Смотреть онлайн Призрак в доспехах: Синдром одиночки | Скачать    Ребята, помогите собрать деньги на оплату серверов!!!

22-12-2014 08:23 Призрак в доспехах: Синдром одиночки Скачать торрент  

PlVoltan , всей команде R.G HD-Films и всем тем кто кто ценит подобные релизы.
Призрак в доспехах: Синдром одиночки / Kokaku kidotai: Stand Alone Complex«A New Beginning, A New Threat...»


Год выпуска: 2002-2005
Страна: Япония
Жанр: аниме, мультфильм, фантастика, боевик, триллер, криминал
Продолжительность: ~00:26:14
Перевод: Профессиональный многоголосый
Субтитры:русские (Полные)
Режиссер:Кэндзи Камияма / Kenji Kamiyama, Масаки Тачибана / Masaki Tachibana, Ицуро Кавасаки / Itsurô Kawasaki
В ролях:

Ацуко Танака (Major Motoko Kusanagi), Осаму Сака (Chief Daisuke Aramaki), Дино Андраде (Children), Кевин Бриф (Kanzaki), Лой Эдж (SWAT), Барбара Гудсон (Maruta), Майкл Грегори (Reiko), Кейт Хиггинс (Children), Пэдди Ли (Fom), Майкл МакКоннохи (Commander), Лайам О’Брайэн (Fake Laughing Man), Пегги О’Нил (Girl)
Описание:
«Майор» Мотоко Кусанаги, Бато и другие сотрудники секретного Девятого отдела разрешают международный кризис с заложниками, ведут охоту на самовольно покинувший полигон шагающий танк и расследуют серию самоубийств андроидов устаревшей модели. Когда погибает старый друг Тогусы, оперативники выходят на след загадочного хакера по кличке «Смеющийся человек»...

Автор рипа:Tiberiumsun69
Качество: BDRip 1080p / 60 FPS
Формат: MKV
Видео кодек: AVC
Аудио кодек:AC3
Видео: 1920x1032 (1.860), 10000 kbps, 59,864 fps
Аудио №1: русский/ 5.1/ 48 kHz/ 384 kbps/ AC3/ |Многоголосый, закадровый MC Entertainment|
Аудио №2: японский/ 5.1/ 48 kHz/ 640 kbps/ AC3
Навигация по главам: есть


01. БЮРО ОБЩЕСТВЕННОЙ БЕЗОПАСНОСТИ, 9-Й ОТДЕЛ
02. ИСПЫТАНИЕ
03. АНДРОИД И Я
04. ПЕРЕХВАТЧИК
05. ПРИМАНКА
06. ПОДРАЖАТЕЛИ
07. ИДОЛОПОКЛОННИЧЕСТВО
08. ПРОПАВШИЕ СЕРДЦА
09. ЧАТ! ЧАТ! ЧАТ!
10. ВОЙНА В ДЖУНГЛЯХ
11. ПОРТРЕТЫ
12. ПОБЕГ
13. НЕРАВЕНСТВО
14. ПРИЗРАК КАПИТАЛИЗМА
15. СВОЕВОЛЬНЫЕ МАШИНЫ
16. МЁРТВАЯ ЗОНА
17. ИСТИНА В ВИНЕ
18. ПРОПАВШЕЕ НАСЛЕДСТВО
19. ПЛЕН
20. ПОВТОР
21. ПРИЗРАЧНЫЕ СЛЕДЫ
22. СКАНДАЛ
23. ЗА ГРАНЬЮ ДОБРА И ЗЛА
24. ОДИНОЧКА
25. ПОД ГРАДОМ ПУЛЬ
26. ДЕВЯТЫЙ ОТДЕЛ ВОСКРЕШЕНИЕ
..::Скриншоты::..
Призрак в доспехах: Синдром одиночки – Одиннадцать индивидуалистов (видео) / S.A.C. 2nd GIG - Individual eleven



Год выпуска: 2002-2005
Страна: Япония
Жанр: аниме, мультфильм, фантастика
Продолжительность: ~00:25:25
Перевод: Профессиональный многоголосый
Субтитры:русские (Полные)
Режиссер:Кэндзи Камияма / Kenji Kamiyama
В ролях:

Элисон Мэтьюз (Major Motoko Kusanagi), Расселл Робертс (Chief Daisuke Aramaki), Дэвид Кэй (Batou), Тревор Дивэлл (Togusa), Такаши Онодзука (Paz), Осаму Сака (Chief Daisuke Aramaki), Ацуко Танака (Major Motoko Kusanagi), Винсент Тонг (Various (2005))
Описание:
9й отдел общественной безопасности оказывается втянутым в запутанный политический заговор, в котором нашлось место как закулисным играм, так и героям, самоотверженно отдающимся фальшивым идеалам их создателей.

Автор рипа:Tiberiumsun69
Качество: BDRip 1080p / 60 FPS
Формат: MKV
Видео кодек: AVC
Аудио кодек:AC3
Видео: 1920x1032 (1.860), 10000 kbps, 59,880 fps
Аудио №1: русский/ 5.1/ 48 kHz/ 384 kbps/ AC3/ |Многоголосый, закадровый MC Entertainment|
Аудио №2: японский/ 5.1/ 48 kHz/ 640 kbps/ AC3
Навигация по главам: есть

01. ПЕРЕЗАГРУЗКА
02. МЕЧТАТЕЛЬ
03. ВЕЧЕР СУББОТЫ, УТРО ВОСКРЕСЕНЬЯ
04. ЕСТЕСТВЕННЫЙ ВРАГ
05. МОТИВАЦИЯ
06. ИСТОЧНИК ТЕПЛА
07. РАПСОДИЯ - МУЗЫКА ПОБЕЖДЁННЫХ
08. ВЕГЕТАРИАНСКИЙ УЖИН
09. БЕЗНАДЁЖНАЯ НАДЕЖДА
10. ПРАВЕДНАЯ ЗЛОСТЬ
11. СТЕКЛЯННЫЙ ЛАБИРИНТ
12. БЕЗЫМЯННЫЕ
13. ЛИЦО
14. БЕРЕГИСЬ ЛЕВОГО ГЛАЗА
15. ДЕНЬ МАШИН
16. ПОБЫВАТЬ ТАМ
17. КАК МАТЬ И ДИТЯ
18. ПОЭМА АНГЕЛА
19. ОТНОСИТЕЛЬНАЯ РЕАКЦИЯ
20. БЕСПОРЯДКИ НА СЕВЕРНОЙ ГРАНИЦЕ
21. ЗАМЕШАТЕЛЬСТВО
22. ПОКИНУТЫЙ ГОРОД
23. ДЕНЬ, КОГДА РУХНУЛ МОСТ
24. ДЭДЗИМА ПОД УДАРАМИ С ВОЗДУХА
25. ПО ОДНУ СТОРОНУ РАЯ
26. ВОЗВРАТ К ПАТРИОТИЗМУ

..::Скриншоты::..
Призрак в доспехах: Синдром одиночки. Сообщество крепкого государства (ТВ) / Stand Alone Complex Solid State Society



Год выпуска: 2006
Страна: Япония
Жанр: аниме, мультфильм, фантастика, боевик, приключения
Продолжительность: 01:48:34
Перевод: Профессиональный (двухголосый)
Субтитры:русские (Полные)
Режиссер:Кэндзи Камияма / Kenji Kamiyama
В ролях:

Ацуко Танака (Motoko Kusanagi / Kuroma, озвучка), Осаму Сака (Daisuke Aramaki, озвучка), Акио Ютсука (Batou, озвучка), Коити Ямадера (Togusa, озвучка), Ютака Накано (Ishikawa, озвучка), Тёру Окава (Saito, озвучка), Такаши Онодзука (Paz, озвучка), Таро Ямагути (Borma, озвучка), Сакико Тамагава (Tachikoma, озвучка), Оки Сугияма (Proto, озвучка), Масахиро Огата (Azuma, озвучка), Ери Ооно (Operator, озвучка)
Описание:
2034 г нашей эры. Прошло два года с тех пор как Мотоко Кусанаги, ушла из 9 отдела. Тогуса - теперь новый лидер команды, в которой теперь сильно увеличено количество персонала. Расширенный новый 9 отдел противостоит множеству сложных инцидентов, и исследования показывают, что отличный хакер, названный Кукловодом - виновник всего ряда событий. Ряд интригующих инцидентов, которые лица 9 отдела постепенно соединяют почти мастерски. Кто - Кукловод? Что случится с отношениями Бато с Мотоко? Что в действительности стоит за этим тщательно запланированным прекрасным преступлением? И, каков же будет результат? Тайны окружают Сообщество стабильной государственности...

Автор рипа:Tiberiumsun69
Качество: BDRip 1080p / 60 FPS
Формат: MKV
Видео кодек: AVC
Аудио кодек:AC3
Видео: 1920x1080 (16:9), 10000 kbps, 59,940 fps
Аудио №1: русский/ 5.1/ 48 kHz/ 640 kbps/ AC3/ |Двухголосый, закадровый Гланц и Королева|
Аудио №2: японский/ 5.1/ 48 kHz/ 640 kbps/ AC3
Навигация по главам: есть


Код:

General
Unique ID                                : 211862276869654699322002651504015808266 (0x9F6330B837A01EEBB3E4B100A3A3970A)
Complete name                            : A:\1080p 60fps\Призрак в доспехах синдром одиночки 1080p 60fps\Сообщество крепкого государства.mkv
Format                                   : Matroska
Format version                           : Version 4 / Version 2
File size                                : 8.55 GiB
Duration                                 : 1h 48mn
Overall bit rate                         : 11.3 Mbps
Movie name                               : R.G. HD-Films by Tiberiumsun69 60fps
Encoded date                             : UTC 2015-01-11 14:17:08
Writing application                      : mkvmerge v7.4.0 ('Circles') 64bit built on Dec 12 2014 12:19:56
Writing library                          : libebml v1.3.0 + libmatroska v1.4.1

Video
ID                                       : 1
Format                                   : AVC
Format/Info                              : Advanced Video Codec
Format profile                           : High@L4.1
Format settings, CABAC                   : Yes
Format settings, ReFrames                : 4 frames
Codec ID                                 : V_MPEG4/ISO/AVC
Duration                                 : 1h 48mn
Bit rate                                 : 10 000 Kbps
Width                                    : 1 920 pixels
Height                                   : 1 080 pixels
Display aspect ratio                     : 16:9
Frame rate                               : 59.940 fps
Color space                              : YUV
Chroma subsampling                       : 4:2:0
Bit depth                                : 8 bits
Scan type                                : Progressive
Bits/(Pixel*Frame)                       : 0.080
Stream size                              : 7.41 GiB (87%)
Title                                    : R.G. HD-Films by Tiberiumsun69 60fps
Writing library                          : x264 core 142 r2491 24e4fed
Encoding settings                        : cabac=1 / ref=4 / deblock=1:0:0 / analyse=0x3:0 / me=umh / subme=10 / psy=1 / psy_rd=0.80:0.00 / mixed_ref=1 / me_range=32 / chroma_me=0 / trellis=2 / 8x8dct=1 / cqm=0 / deadzone=21,11 / fast_pskip=1 / chroma_qp_offset=-2 / threads=12 / lookahead_threads=1 / sliced_threads=0 / nr=0 / decimate=1 / interlaced=0 / bluray_compat=0 / constrained_intra=0 / bframes=5 / b_pyramid=2 / b_adapt=2 / b_bias=0 / direct=3 / weightb=1 / open_gop=0 / weightp=2 / keyint=250 / keyint_min=59 / scenecut=40 / intra_refresh=0 / rc=2pass / mbtree=0 / bitrate=10000 / ratetol=1.0 / qcomp=0.80 / qpmin=0 / qpmax=69 / qpstep=4 / cplxblur=20.0 / qblur=0.5 / ip_ratio=1.40 / pb_ratio=1.30 / aq=1:1.00
Language                                 : English
Default                                  : Yes
Forced                                   : No

Audio #1
ID                                       : 2
Format                                   : AC-3
Format/Info                              : Audio Coding 3
Mode extension                           : CM (complete main)
Codec ID                                 : A_AC3
Duration                                 : 1h 48mn
Bit rate mode                            : Constant
Bit rate                                 : 640 Kbps
Channel(s)                               : 6 channels
Channel positions                        : Front: L C R, Side: L R, LFE
Sampling rate                            : 48.0 KHz
Bit depth                                : 16 bits
Compression mode                         : Lossy
Stream size                              : 497 MiB (6%)
Title                                    : Двухголосый, закадровый Гланц и Королёва
Language                                 : Russian
Default                                  : Yes
Forced                                   : No

Audio #2
ID                                       : 3
Format                                   : AC-3
Format/Info                              : Audio Coding 3
Mode extension                           : CM (complete main)
Codec ID                                 : A_AC3
Duration                                 : 1h 48mn
Bit rate mode                            : Constant
Bit rate                                 : 640 Kbps
Channel(s)                               : 6 channels
Channel positions                        : Front: L C R, Side: L R, LFE
Sampling rate                            : 48.0 KHz
Bit depth                                : 16 bits
Compression mode                         : Lossy
Stream size                              : 497 MiB (6%)
Title                                    : Оригинал
Language                                 : Japanese
Default                                  : No
Forced                                   : No

Text
ID                                       : 4
Format                                   : UTF-8
Codec ID                                 : S_TEXT/UTF8
Codec ID/Info                            : UTF-8 Plain Text
Title                                    : Полные
Language                                 : Russian
Default                                  : No
Forced                                   : No

Menu
00:00:00.000                             : en:00:00:00.000
00:05:16.525                             : en:00:05:16.525
00:06:47.032                             : en:00:06:47.032
00:15:04.737                             : en:00:15:04.737
00:21:37.379                             : en:00:21:37.379
00:23:07.011                             : en:00:23:07.011
00:24:56.912                             : en:00:24:56.912
00:29:15.087                             : en:00:29:15.087
00:32:43.461                             : en:00:32:43.461
00:38:09.454                             : en:00:38:09.454
00:41:26.234                             : en:00:41:26.234
00:43:30.024                             : en:00:43:30.024
00:48:33.160                             : en:00:48:33.160
00:52:51.460                             : en:00:52:51.460
00:57:35.160                             : en:00:57:35.160
01:01:12.460                             : en:01:01:12.460
01:04:33.828                             : en:01:04:33.828
01:07:31.047                             : en:01:07:31.047
01:11:03.593                             : en:01:11:03.593
01:13:42.251                             : en:01:13:42.251
01:18:17.192                             : en:01:18:17.192
01:21:28.008                             : en:01:21:28.008
01:24:29.189                             : en:01:24:29.189
01:26:39.111                             : en:01:26:39.111
01:29:07.926                             : en:01:29:07.926
01:37:01.774                             : en:01:37:01.774
01:39:01.853                             : en:01:39:01.853
01:43:37.169                             : en:01:43:37.169

..::Скриншоты::..
General
Unique ID : 200079774052223258276856360636287167016 (0x9685F67ACDD5682F832DC0C2D9962A28)
Complete name : A:\1080p 60fps\Призрак в доспехах синдром одиночки 1080p 60fps\Сезон 1\01. 9-Й ОТДЕЛ.mkv
Format : Matroska
Format version : Version 4 / Version 2
File size : 2.02 GiB
Duration : 26mn 14s
Overall bit rate : 11.0 Mbps
Movie name : R.G. HD-Films by Tiberiumsun69 60fps
Encoded date : UTC 2014-12-21 17:52:43
Writing application : mkvmerge v7.4.0 ('Circles') 64bit built on Dec 12 2014 12:19:56
Writing library : libebml v1.3.0 + libmatroska v1.4.1

Video
ID : 1
Format : AVC
Format/Info : Advanced Video Codec
Format profile : High@L4.1
Format settings, CABAC : Yes
Format settings, ReFrames : 4 frames
Codec ID : V_MPEG4/ISO/AVC
Duration : 26mn 14s
Bit rate : 10 000 Kbps
Width : 1 920 pixels
Height : 1 032 pixels
Display aspect ratio : 1.85:1
Frame rate mode : Constant
Frame rate : 59.880 fps
Original frame rate : 59.864 fps
Color space : YUV
Chroma subsampling : 4:2:0
Bit depth : 8 bits
Scan type : Progressive
Bits/(Pixel*Frame) : 0.084
Stream size : 1.79 GiB (89%)
Title : R.G. HD-Films by Tiberiumsun69 60fps
Writing library : x264 core 142 r2491 24e4fed
Encoding settings : cabac=1 / ref=4 / deblock=1:0:0 / analyse=0x3:0 / me=umh / subme=10 / psy=1 / psy_rd=0.80:0.00 / mixed_ref=1 / me_range=32 / chroma_me=0 / trellis=2 / 8x8dct=1 / cqm=0 / deadzone=21,11 / fast_pskip=1 / chroma_qp_offset=-2 / threads=12 / lookahead_threads=1 / sliced_threads=0 / nr=0 / decimate=1 / interlaced=0 / bluray_compat=0 / constrained_intra=0 / bframes=5 / b_pyramid=2 / b_adapt=2 / b_bias=0 / direct=3 / weightb=1 / open_gop=0 / weightp=2 / keyint=250 / keyint_min=59 / scenecut=40 / intra_refresh=0 / rc=2pass / mbtree=0 / bitrate=10000 / ratetol=1.0 / qcomp=0.80 / qpmin=0 / qpmax=69 / qpstep=4 / cplxblur=20.0 / qblur=0.5 / ip_ratio=1.40 / pb_ratio=1.30 / aq=1:1.00
Language : English
Default : Yes
Forced : No

Audio #1
ID : 2
Format : AC-3
Format/Info : Audio Coding 3
Mode extension : CM (complete main)
Format settings, Endianness : Big
Codec ID : A_AC3
Duration : 26mn 14s
Bit rate mode : Constant
Bit rate : 384 Kbps
Channel(s) : 6 channels
Channel positions : Front: L C R, Side: L R, LFE
Sampling rate : 48.0 KHz
Bit depth : 16 bits
Compression mode : Lossy
Stream size : 72.1 MiB (3%)
Title : Многоголосый, закадровый MC Entertainment
Language : Russian
Default : Yes
Forced : No

Audio #2
ID : 3
Format : AC-3
Format/Info : Audio Coding 3
Mode extension : CM (complete main)
Format settings, Endianness : Big
Codec ID : A_AC3
Duration : 26mn 14s
Bit rate mode : Constant
Bit rate : 640 Kbps
Channel(s) : 6 channels
Channel positions : Front: L C R, Side: L R, LFE
Sampling rate : 48.0 KHz
Bit depth : 16 bits
Compression mode : Lossy
Stream size : 120 MiB (6%)
Title : Оригинал
Language : Japanese
Default : No
Forced : No

Text
ID : 4
Format : UTF-8
Codec ID : S_TEXT/UTF8
Codec ID/Info : UTF-8 Plain Text
Title : Полные
Language : Russian
Default : No
Forced : No

Menu
00:00:00.000 : en:Opening
00:01:30.090 : en:Part A
00:10:03.069 : en:Part B
00:23:00.179 : en:Ending
00:24:30.202 : en:Tachikomatic Days

Просьба к заливающим на другик сайты "Подписывайте пожалуйста автора рипа Tiberiumsun69"

© Оформление by Tiberiumsun69 Демонстрация 5-120 fps!!! Жмите
Авторская группа в ВК
pb.wtf



Скачать Призрак в доспехах: Синдром одиночки через торрент http://i68.fastpic.ru/big/2014/1222/6c/029a90682925f687ea94d51c7b0d4a6c.png Скачать, смотреть онлайн Призрак в доспехах: Синдром одиночки бесплантно в хорошем качестве Описание: «Майор» Мотоко Кусанаги, Бато и другие сотрудники секретного Девятого отдела разрешают международный кризис с заложниками, ведут ... 9.4 10 25
Info! Золотая раздача, скачанное не засчитывается.
Торрент: Зарегистрирован [2015-01-11 15:02] · скачан: 107 раз
Статус: √ проверено
Размер: 110.75 GB
Как cкачать? Как скачать Призрак в доспехах: Синдром одиночки через торрент | UTorrent



Последний раз редактировалось: Tiberiumsun69 (2018-02-07 09:44), всего редактировалось 7 раз(а)

28-11-2019 20:33  

Отключить всю рекламу на сайте

22-12-2014 08:25 Призрак в доспехах: Синдром одиночки Скачать торрент  

P.S. Остальное будет после нового года.
2 сезон
Сообщество стабильного государства

Всем приятного просмотра. :film: pb.wtf



22-12-2014 08:35 Призрак в доспехах: Синдром одиночки Скачать торрент  

спасибоpb.wtf



22-12-2014 11:14 Призрак в доспехах: Синдром одиночки Скачать торрент  

Ай класс, спасибо огромное дружище!!!!! забираю))pb.wtf



11-01-2015 15:20 Призрак в доспехах: Синдром одиночки Скачать торрент  

Внимание!Раздача обновлена.Добавлен 2 сезон и его продолжение.Всем приятного просмотра. sweat :hmmm

P.S Фанатам сериала будет интересно. http://movies.d3.ru/comments/648040/pb.wtf



11-01-2015 20:28 Призрак в доспехах: Синдром одиночки Скачать торрент  

блин, крутая раздача, а по легче есть? а то 100 гигов, круто для меня. заранее спасибо.pb.wtf



11-01-2015 20:53 Призрак в доспехах: Синдром одиночки Скачать торрент  

СПАСИБО БОЛЬШОЕ за это великолепие! yes Эта раздача вне конкуренции, а если учесть, что тут неподалёку раздача с полнометражными "призраками", то главный приз в номинации лучшая раздача года получает "Призрак в доспехах" =)pb.wtf



14-12-2015 15:26 Призрак в доспехах: Синдром одиночки Скачать торрент  

сижу на раздаче, качайте на здоровьеpb.wtf



    Дорогой пользователь! Огромная просьба, поблагодарите релизера, оцените раздачу и оставьте свои комментарий, если Вы скачали Призрак в доспехах: Синдром одиночки через торрент бесплатно!
    Комментировать посты могут только пользователи прошедшие не сложную регистрацию
    Показать сообщения:    

    Призрак в доспехах: Синдром одиночки через торрент
    Скачать бесплатно Призрак в доспехах: Синдром одиночки
    Призрак в доспехах: Синдром одиночки скачать торрент
    Призрак в доспехах: Синдром одиночки смотреть онлайн
    Cкачать фильм Призрак в доспехах: Синдром одиночки бесплатно
    Призрак в доспехах: Синдром одиночки скачать торрент в хорошем качестве
    Призрак в доспехах: Синдром одиночки смотреть онлайн бесплатно в хорошем качестве


    Вы не можете начинать темы
    Вы не можете отвечать на сообщения
    Вы не можете редактировать свои сообщения
    Вы не можете удалять свои сообщения
    Вы не можете голосовать в опросах
    Вы не можете прикреплять файлы к сообщениям
    Вы можете скачивать файлы