Ссылка на приватное зеркало нашего сайта всего за 1$. Внимание количество ограничено!!!

2 сезон

iTunes

1 сезон

1

2 сезон

2 сезон

iTunes

1 сезон

RePack

30

Новинка

ВАЖНО

ИГРА 18+

pack

RePack

MK11
pack

Забери бонус

RePack

jed

!!Акция!!

Alien_Rage

RePack

fifa19

RePack

Assassins Creed: Odyssey

RePack

NEED FOR SPEED™ PAYBACK

4 сезон

9 сезон

Бесстыжие 9 сезон

Все сериалы

все сериалы на PB.wtf

RePack

FAR CRY 5
  

Однажды в сказке / Давным-давно / В некотором царстве / Once Upon a Time / Сезон: 2 / Серии: 1-22 из 22 (Грег Биман, Марк Майлод, Дин Уайт) [2012-2013, Драма, фэнтези, Web-DLRip] Dub (Невафильм) pb.wtf

Однажды в сказке через торрент pb.wtf

Размер: 6 GB | Добавлен: 5 лет 11 мес. назад | Торрент скачан:402 раза
Скачать  

22-12-2014 10:26 Однажды в сказке Скачать торрент  

Однажды в сказке / Давным-давно / Once Upon a Time
Год выпуска: 2012-2013
Страна: США
Жанр: Драма, фэнтези
Продолжительность: 00:43:00
Перевод: Дубляж (Невафильм)

Режиссер: Грег Биман, Марк Майлод, Дин Уайт



В ролях: Джиннифер Гудвин, Дженнифер Моррисон, Роберт Карлайл, Лана Паррилла, Джаред Гилмор, Джошуа Даллас, Рафаэль Сбардж, Меган Ори, Джеми Дорнан, Беверли Эллиотт

Описание: Сюжет фэнтези разворачивается в двух мирах — современном и сказочном. Беззаботная жизнь 28-летней Эммы Свон меняется, когда ее 10-летний сын Генри, от которого она отказалась много лет назад, находит Эмму и объявляет, что она является дочерью Прекрасного Принца и Белоснежки. Само собой разумеется, у мальчишки нет никаких сомнений, что параллельно нашему существует альтернативный сказочный мир — город Сторибрук, в котором в итоге оказывается Эмма. Постепенно героиня привязывается к необычному мальчику и странному городу, жители которого «забыли», кем они были в прошлом. А все из-за проклятия Злой Королевы (по совместительству приемной матери Генри), с помощью которого колдунья остановила время в сказочной стране. Однако стоит протянуть руку — и сказка оживет. Эпическая битва за будущее двух миров начинается, но, чтобы одержать победу, Эмме придется принять свою судьбу…

Качество: WEB-DLRip
Формат: AVI
Видео кодек: H.264
Аудио кодек: AAC
Видео: 640x360 (16:9), 23.976 fps, 768 Kbps (0.139 bit/pixel)
Аудио#1: 48.0 KHz, 2 ch, 128 Kbps, VBR (Russian)
01 - Сломленный / Broken
02 - Мы оба / We Are Both
03 - Владычица Озера / Lady of the Lake
04 - Крокодил / The Crocodile
05 - Доктор / The Doctor
06 - Таллахасси / Tallahassee
07 - Дитя Луны / Child of the Moon
08 - В глубине / Into the Deep
09 - Червонная Королева / Queen of Hearts
10 - Игра в крикет / The Cricket Game
11 - Аутсайдер / The Outsider
12 - От имени брата / In the Name of the Brother
13 - Крохотный / Tiny
14 - Манхэттен / Manhattan
15 - Королева мертва / The Queen Is Dead
16 - Дочь мельника / The Miller's Daughter
17 - "Добро пожаловать в Сторибрук" / Welcome to Storybrooke
18 - Самоотверженный, храбрый и верный / Selfless, Brave and True
19 - Лэйси / Lacey
20 - Злая Королева / The Evil Queen
21 - Вторая звезда направо / Second Star to the Right
22 - И прямо до утра / And Straight on Till Morning





Общее
Полное имя : F:\Давным-давно\Odnazhdy.v.skazke.2012.S02.WEB-DLRip.x264.640x(semen_52-TNC)\Odnazhdy.v.skazke.2012.S02.E01(semen_52-TNC).mp4
Формат : MPEG-4
Профиль формата : Base Media
Идентификатор кодека : isom
Размер файла : 279 Мбайт
Продолжительность : 43 м.
Режим общего битрейта : Переменный
Общий поток : 904 Кбит/сек
Коллекция : Odnazhdy v skazke 2012 S02
Сезон : 0
Часть : 0
Часть/Положение : 1
Трек/Положение : 1
Тип содержимого : Short Film
Дата кодирования : UTC 2014-02-01 09:54:31
Дата пометки : UTC 2014-02-01 09:54:57
Программа кодирования : MkvToMp4 [www.mkvtomp4.ru] version: 0.224 (x64)
Примечание : Rip by semen_52-TNC
Title/Sort : Odnazhdy v skazke 2012 S02

Видео
Идентификатор : 1
Формат : AVC
Формат/Информация : Advanced Video Codec
Профиль формата : Main@L3.1
Параметр CABAC формата : Да
Параметр ReFrames формата : 5 кадров
Идентификатор кодека : avc1
Идентификатор кодека/Информация : Advanced Video Coding
Продолжительность : 43 м.
Битрейт : 768 Кбит/сек
Максимальный битрейт : 3551 Кбит/сек
Ширина : 640 пикселей
Высота : 360 пикселей
Соотношение сторон : 16:9
Режим частоты кадров : Постоянный
Частота кадров : 23,976 кадра/сек
Цветовое пространство : YUV
Субдискретизация насыщенности : 4:2:0
Битовая глубина : 8 бит
Тип развёртки : Прогрессивная
Бит/(Пиксели*Кадры) : 0.139
Размер потока : 237 Мбайт (85%)
Библиотека кодирования : x264 core 130 r2273 b3065e6
Настройки программы : cabac=1 / ref=5 / deblock=1:-2:-2 / analyse=0x1:0x111 / me=umh / subme=9 / psy=1 / psy_rd=1.00:0.15 / mixed_ref=1 / me_range=8 / chroma_me=1 / trellis=2 / 8x8dct=0 / cqm=0 / deadzone=21,11 / fast_pskip=0 / chroma_qp_offset=-3 / threads=4 / lookahead_threads=4 / sliced_threads=0 / nr=0 / decimate=1 / interlaced=0 / bluray_compat=0 / constrained_intra=0 / bframes=3 / b_pyramid=2 / b_adapt=2 / b_bias=0 / direct=3 / weightb=1 / open_gop=0 / weightp=2 / keyint=250 / keyint_min=23 / scenecut=40 / intra_refresh=0 / rc_lookahead=90 / rc=2pass / mbtree=1 / bitrate=768 / ratetol=1.0 / qcomp=0.60 / qpmin=0 / qpmax=69 / qpstep=4 / cplxblur=20.0 / qblur=0.5 / ip_ratio=1.40 / aq=1:1.00
Язык : English
Дата кодирования : UTC 2014-02-01 09:54:31
Дата пометки : UTC 2014-02-01 09:54:37

Аудио
Идентификатор : 2
Формат : AAC
Формат/Информация : Advanced Audio Codec
Профиль формата : LC
Идентификатор кодека : 40
Продолжительность : 43 м.
Вид битрейта : Переменный
Битрейт : 128 Кбит/сек
Максимальный битрейт : 250 Кбит/сек
Каналы : 2 канала
Расположение каналов : Front: L R
Частота : 48,0 КГц
Метод сжатия : С потерями
Размер потока : 39,5 Мбайт (14%)
Заголовок : Dub Nevafilm
Язык : Russian
Дата кодирования : UTC 2014-02-01 09:54:35
Дата пометки : UTC 2014-02-01 09:54:37


Однажды в сказке / Давным-давно скачать торрент


pb.wtf



Скачать Однажды в сказке через торрент http://pic.kartinco.top/images/8/2g366.jpg Скачать фильм Однажды в сказке через торрент бесплантно в хорошем качестве Описание: Сюжет фэнтези разворачивается в двух мирах — современном и сказочном. Беззаботная жизнь 28-летней Эммы Свон меняется, когда ее ... 10 10 20
Info! Золотая раздача, скачанное не засчитывается.
Торрент: Зарегистрирован [2014-12-22 10:26] · скачан: 402 раз
Статус: √ проверено
Размер: 6 GB
Как cкачать? Как скачать Однажды в сказке через торрент | qTorrent

28-11-2019 20:33  

Отключить всю рекламу на сайте

23-12-2014 22:44 Однажды в сказке Скачать торрент  

Дайте скорости, за три дня еще ни килобайта скачать не удалось(((pb.wtf



27-02-2016 19:05 Однажды в сказке Скачать торрент  

Скорости пожалуйста!!!!!pb.wtf



20-06-2017 17:46 Однажды в сказке Скачать торрент  

раздайте!) а то в торренте висит уже черт знает сколько и по нулямpb.wtf



    Дорогой пользователь! Огромная просьба, поблагодарите релизера, оцените раздачу и оставьте свои комментарий, если Вы скачали Однажды в сказке через торрент бесплатно! Внесите свою лепту в развитие PiratBit!
    Комментировать посты могут только пользователи прошедшие не сложную регистрацию
    Показать сообщения:    

    Однажды в сказке через торрент
    Скачать бесплатно Однажды в сказке
    Однажды в сказке скачать торрент
    Однажды в сказке смотреть онлайн
    Cкачать фильм Однажды в сказке бесплатно
    Однажды в сказке скачать торрент в хорошем качестве
    Однажды в сказке смотреть онлайн бесплатно в хорошем качестве


    Вы не можете начинать темы
    Вы не можете отвечать на сообщения
    Вы не можете редактировать свои сообщения
    Вы не можете удалять свои сообщения
    Вы не можете голосовать в опросах
    Вы не можете прикреплять файлы к сообщениям
    Вы можете скачивать файлы