Ссылка на приватное зеркало нашего сайта всего за 1$. Внимание количество ограничено!!!

2 сезон

iTunes

1 сезон

1

2 сезон

2 сезон

iTunes

1 сезон

RePack

30

Новинка

ВАЖНО

ИГРА 18+

pack

RePack

MK11
pack

Забери бонус

RePack

jed

!!Акция!!

Alien_Rage

RePack

fifa19

RePack

Assassins Creed: Odyssey

RePack

NEED FOR SPEED™ PAYBACK

4 сезон

9 сезон

Бесстыжие 9 сезон

Все сериалы

все сериалы на PB.wtf

RePack

FAR CRY 5
  

Однажды в сказке / Давным-давно / В некотором царстве / Once Upon a Time / Сезон: 3 / Серии: 1-22 из 22 (Грег Биман, Марк Майлод, Дин Уайт) [2013-2014, драма, фэнтези, WEB-DLRip] Dub (Невафильм) pb.wtf

Однажды в сказке через торрент pb.wtf

Размер: 5.99 GB | Добавлен: 5 лет 11 мес. назад | Торрент скачан:439 раз
Скачать  

22-12-2014 10:42 Однажды в сказке Скачать торрент  

Однажды в сказке / Давным-давно / В некотором царстве / Once Upon a Time
Год выпуска: 2013 -2014
Страна: США
Жанр: Драма, фэнтези
Продолжительность: ~ 00:43:00
Перевод: Дубляж

Режиссер: Грег Биман, Марк Майлод, Дин Уайт



В ролях: Джиннифер Гудвин, Дженнифер Моррисон, Роберт Карлайл, Лана Паррилла, Джаред Гилмор, Джошуа Даллас, Рафаэль Сбардж, Меган Ори, Джеми Дорнан, Беверли Эллиотт

Описание: Сюжет фэнтези разворачивается в двух мирах — современном и сказочном. Беззаботная жизнь 28-летней Эммы Свон меняется, когда ее 10-летний сын Генри, от которого она отказалась много лет назад, находит Эмму и объявляет, что она является дочерью Прекрасного Принца и Белоснежки. Само собой разумеется, у мальчишки нет никаких сомнений, что параллельно нашему существует альтернативный сказочный мир — город Сторибрук, в котором в итоге оказывается Эмма. Постепенно героиня привязывается к необычному мальчику и странному городу, жители которого «забыли», кем они были в прошлом. А все из-за проклятия Злой Королевы (по совместительству приемной матери Генри), с помощью которого колдунья остановила время в сказочной стране. Однако стоит протянуть руку — и сказка оживет. Эпическая битва за будущее двух миров начинается, но, чтобы одержать победу, Эмме придется принять свою судьбу…

Качество: WEB-DLRip
Формат: AVI
Видео кодек: H.264
Аудио кодек: AAC
Видео: 640x360 (16:9), 23.976 fps, 768 Kbps (0.139 bit/pixel)
Аудио#1: 48.0 KHz, 2 ch, 128 Kbps, VBR (Russian)
Имена многих персонажей в Сторибруке часто взаимосвязаны с их сказочными прототипами. Например:
Мэри Маргарет Блэнчард (Белоснежка): Блэнчард происходит из французского слова «blanc» т. е. белый. Имя «Мэри Маргарет» позаимствовано у реальной женщины, которая, как полагают, была прообразом Белоснежки, по имени «Мария София Маргэрета Катарина Фрайфройлайн фон Эрталь» (родившийся 15 июня 1729 в Германии).
Регина Миллс (Злая Королева): Регина — по-латински «Королева».
Мистер Голд (Румпельштильцхен): Румпельштильцхен прял из соломы золото (англ. gold) в своей истории.
Руби (Красная Шапочка): Рубин — драгоценный камень от розового до кроваво-красного оттенков.
Эшли Бойд (Золушка): Зола предшествует пеплу (ash — Эшли) в процессе горения. Бойд от гэльского слова «buidhe», что значит «с желтыми волосами».
Синди Глас (Зеркало): Поскольку иначе зеркало называют «looking glass». Кроме того, его газета называется «Зеркало».
Арчи Хоппер (Сверчок): Сверчки передвигаются прыжками (Хоппер -> hop -> прыжок). Кроме того, слово «сricket» (англ. сверчок) иногда используется для обозначения слова бункер (hopper — бункер).
Джефферсон (Безумный Шляпник): у группы Jefferson Airplane есть песня «Белый Кролик», которая отражает образы сказки «Алиса в Стране Чудес».
Кора (Королева Червей) — имя образовано от латинского «cor» — сердце.
Пилотный эпизод привлек 12,930 миллионов зрителей.
Автором акварелей, которыми иллюстрирована книга сказок, принадлежащая Генри, является португальский художник Жоао Лемос (Joao MP Lemos), рисующий комиксы для компании Marvel.
Продюсеры предлагали роль Голубой феи Леди Гаге, но от её менеджера ответа не поступило. В итоге роль отдали Киган Коннор Трейси.
Несколько раз за время сериала, на руке мистера Голда можно было заметить обручальное кольцо. Дело в том, что Роберт Карлайл просто забывал снять своё на съёмках, он даже сам писал об этом в твиттере.
01. Сердце истинно верующего / The Heart of the Truest Believer
02. Потерянная девушка / Lost Girl
03. Типичная фея / Quite a Common Fairy
04. Дурные привычки / Nasty Habits
05. Хорошие манеры / Good Form
06. Ариэль / Ariel
07. Темная лощина / Dark Hollow
08. Лелеять прекрасные мысли / Think Lovely Thoughts
09. Спасти Генри / Save Henry
10. Новый Неверлэнд / The New Neverland
11. Иду Домой / Going Home
12. Серенада Нью-Йорка / New York City Serenade
13. Охота на ведьм / Witch Hunt
14. Башня / The Tower
15. Спокойный характер / Quiet Minds
16. Не легко быть зеленым / It's Not Easy Being Green
17. Веселый Роджер / The Jolly Roger
18. Проступающий / Bleeding Through
19. Любопытная вещь / A Curious Thing
20. Канзас / Kansas
21. Метель / Snow Drifts
22. Нет места лучше дома / There's No Place Like Home





Общее
Полное имя : H:\Давным-давно\Odnazhdy.v.skazke.2013-2014.S03.WEB-DLRip.x264.640x(semen_52-TNC)\Odnazhdy.v.skazke.2013-2014.s03e01(semen_52-TNC).mp4
Формат : MPEG-4
Профиль формата : Base Media
Идентификатор кодека : isom
Размер файла : 278 Мбайт
Продолжительность : 42 м.
Режим общего битрейта : Переменный
Общий поток : 904 Кбит/сек
Коллекция : Odnazhdy v skazke 2013-2014
Сезон : 3
Часть : 0
Часть/Положение : 3
Трек/Положение : 1
Тип содержимого : Short Film
Дата кодирования : UTC 2014-07-31 15:17:41
Дата пометки : UTC 2014-07-31 15:18:11
Программа кодирования : MkvToMp4 [www.mkvtomp4.ru] version: 0.224 (x64)
Примечание : Rip by semen_52-TNC
Title/Sort : Odnazhdy v skazke 2013-2014

Видео
Идентификатор : 1
Формат : AVC
Формат/Информация : Advanced Video Codec
Профиль формата : High@L4.1
Параметр CABAC формата : Да
Параметр ReFrames формата : 5 кадров
Идентификатор кодека : avc1
Идентификатор кодека/Информация : Advanced Video Coding
Продолжительность : 42 м.
Битрейт : 768 Кбит/сек
Максимальный битрейт : 5727 Кбит/сек
Ширина : 640 пикселей
Высота : 360 пикселей
Соотношение сторон : 16:9
Режим частоты кадров : Постоянный
Частота кадров : 23,976 кадра/сек
Цветовое пространство : YUV
Субдискретизация насыщенности : 4:2:0
Битовая глубина : 8 бит
Тип развёртки : Прогрессивная
Бит/(Пиксели*Кадры) : 0.139
Размер потока : 236 Мбайт (85%)
Библиотека кодирования : x264 core 130 r2273 b3065e6
Настройки программы : cabac=1 / ref=5 / deblock=1:-2:-2 / analyse=0x3:0x113 / me=umh / subme=9 / psy=1 / psy_rd=1.00:0.15 / mixed_ref=1 / me_range=8 / chroma_me=1 / trellis=2 / 8x8dct=1 / cqm=0 / deadzone=21,11 / fast_pskip=0 / chroma_qp_offset=-3 / threads=6 / lookahead_threads=5 / sliced_threads=0 / nr=0 / decimate=1 / interlaced=0 / bluray_compat=0 / constrained_intra=0 / bframes=3 / b_pyramid=2 / b_adapt=2 / b_bias=0 / direct=3 / weightb=1 / open_gop=0 / weightp=2 / keyint=250 / keyint_min=25 / scenecut=40 / intra_refresh=0 / rc_lookahead=60 / rc=2pass / mbtree=1 / bitrate=768 / ratetol=1.0 / qcomp=0.60 / qpmin=0 / qpmax=69 / qpstep=4 / cplxblur=20.0 / qblur=0.5 / ip_ratio=1.40 / aq=1:1.00
Язык : English
Дата кодирования : UTC 2014-07-31 15:17:41
Дата пометки : UTC 2014-07-31 15:17:50

Аудио
Идентификатор : 2
Формат : AAC
Формат/Информация : Advanced Audio Codec
Профиль формата : LC
Идентификатор кодека : 40
Продолжительность : 42 м.
Вид битрейта : Переменный
Битрейт : 128 Кбит/сек
Максимальный битрейт : 151 Кбит/сек
Каналы : 2 канала
Расположение каналов : Front: L R
Частота : 48,0 КГц
Метод сжатия : С потерями
Размер потока : 39,2 Мбайт (14%)
Заголовок : Dub Nevafilm
Язык : Russian
Дата кодирования : UTC 2014-07-31 15:17:47
Дата пометки : UTC 2014-07-31 15:17:50


Однажды в сказке / Давным-давно / В некотором царстве скачать торрент


pb.wtf



Скачать Однажды в сказке через торрент http://pic.kartinco.top/images/8/z2k4b.jpg Скачать фильм Однажды в сказке через торрент бесплантно в хорошем качестве Описание: Сюжет фэнтези разворачивается в двух мирах — современном и сказочном. Беззаботная жизнь 28-летней Эммы Свон меняется, когда ее ... 10 10 18
Info! Золотая раздача, скачанное не засчитывается.
Торрент: Зарегистрирован [2014-12-22 10:42] · скачан: 439 раз
Статус: √ проверено
Размер: 5.99 GB
Как cкачать? Как скачать Однажды в сказке через торрент | qTorrent

28-11-2019 20:33  

Отключить всю рекламу на сайте

10-03-2016 09:41 Однажды в сказке Скачать торрент  

Дайте скорости !!!!!Плиззззз!!!!!!pb.wtf



04-02-2018 15:45 Однажды в сказке Скачать торрент  

Дайте скачать-тоpb.wtf



    Дорогой пользователь! Огромная просьба, поблагодарите релизера, оцените раздачу и оставьте свои комментарий, если Вы скачали Однажды в сказке через торрент бесплатно! Внесите свою лепту в развитие PiratBit!
    Комментировать посты могут только пользователи прошедшие не сложную регистрацию
    Показать сообщения:    

    Однажды в сказке через торрент
    Скачать бесплатно Однажды в сказке
    Однажды в сказке скачать торрент
    Однажды в сказке смотреть онлайн
    Cкачать фильм Однажды в сказке бесплатно
    Однажды в сказке скачать торрент в хорошем качестве
    Однажды в сказке смотреть онлайн бесплатно в хорошем качестве


    Вы не можете начинать темы
    Вы не можете отвечать на сообщения
    Вы не можете редактировать свои сообщения
    Вы не можете удалять свои сообщения
    Вы не можете голосовать в опросах
    Вы не можете прикреплять файлы к сообщениям
    Вы можете скачивать файлы