Ссылка на приватное зеркало нашего сайта всего за 1$. Внимание количество ограничено!!!

2 сезон

iTunes

1 сезон

1

2 сезон

2 сезон

iTunes

1 сезон

RePack

30

Ultimate

ВАЖНО

ИГРА 18+

pack

RePack

MK11
pack

Забери бонус

RePack

jed

!!Акция!!

Alien_Rage

RePack

fifa19

RePack

Assassins Creed: Odyssey

RePack

NEED FOR SPEED™ PAYBACK

4 сезон

9 сезон

Бесстыжие 9 сезон

Все сериалы

все сериалы на PB.wtf

RePack

FAR CRY 5
  

Однажды в сказке / Давным-давно / В некотором царстве / Once Upon a Time / Сезон: 4 / Серии 1-12 (23)(Грег Биман, Марк Майлод, Дин Уайт) [2014- 2015 г., Драма, фэнтези, WEB-DLRip] MVO (To4kaTranslate) +Original pb.wtf

Однажды в сказке через торрент pb.wtf

Размер: 5.28 GB | Добавлен: 5 лет 11 мес. назад | Торрент скачан:336 раз
Скачать  

22-12-2014 10:59 Однажды в сказке Скачать торрент  

Однажды в сказке / Давным-давно / В некотором царстве / Once Upon a Time
Год выпуска: 2014- 2015
Страна: США
Жанр: Драма, фэнтези
Продолжительность: ~ 00:43:00
Перевод: Профессиональный многоголосый (To4kaTranslate)

Режиссер: Грег Биман, Марк Майлод, Дин Уайт



В ролях: Джиннифер Гудвин, Дженнифер Моррисон, Роберт Карлайл, Лана Паррилла, Джаред Гилмор,
Джошуа Даллас, Рафаэль Сбардж, Меган Ори, Джеми Дорнан, Беверли Эллиотт

Описание: Сюжет фэнтези разворачивается в двух мирах - современном и сказочном. Беззаботная жизнь 28-летней Эммы Свон меняется, когда ее 10-летний сын Генри, от которого она отказалась много лет назад, находит Эмму и объявляет, что она является дочерью Прекрасного Принца и Белоснежки. Само собой разумеется, у мальчишки нет никаких сомнений, что параллельно нашему существует альтернативный сказочный мир – город Сторибрук, в котором в итоге оказывается Эмма. Постепенно героиня привязывается к необычному мальчику и странному городу, жители которого «забыли», кем они были в прошлом. А все из-за проклятия Злой Королевы (по совместительству приемной матери Генри), с помощью которого колдунья остановила время в сказочной стране. Однако стоит протянуть руку - и сказка оживет. Эпическая битва за будущее двух миров начинается, но, чтобы одержать победу, Эмме придется принять свою судьбу...

Качество: WEB-DLRip
Формат: AVI
Видео кодек: XviD
Аудио кодек: MP3
Видео: 720x400 (16:9), 23.976 fps, 1 192 Kbps (0.173 bit/pixel)
Аудио#1: 48.0 KHz, 2 ch, 128 Kbps, CBR Русский
Аудио#2: 48.0 KHz, 2 ch, 128 Kbps, CBR Английский
Релиз от:
Когда раздача ведётся путём добавления новых серий, при каждом добавлении создётся новый торрент. Чтобы начать докачку новой серии, пользователям необходимо сделать следующее:
(1) остановить скачивание,
(2) удалить старый торрент у себя из клиента (старые серии удалять не надо),
(3) скачать новый торрент и запустить его у себя в клиенте вместо старого, при этом указать клиенту путь в старую папку, куда и должно происходить скачивание новых серий.
Ваш клиент при этом должен произвести хеширование (проверку) старой папки (если не производит сам - помогите ему сделать это), и будет докачивать только те серии, которых у вас ещё нет. Старые серии при этом не удаляются, а продолжают раздаваться!
Eсли вы уже удалили старые серии, то предотвратить повторную закачку старых серий можно, отжав галочку в соответсвующих местах при запуске нового торрента. По возможности, желательно не удалять старые серии как можно дольше, чтобы релизёр не столько продолжал раздавать старые серии, а смог сконцентрироваться на новых.





Общее
Полное имя : F:\Давным-давно\Once.Upon.A.Time.s04.WEB-DLRip.Rus.Eng.[To4ka.TV]\Once.Upon.A.Time.s04e01.WEB-DLRip.Rus.Eng.[To4ka.TV].avi
Формат : AVI
Формат/Информация : Audio Video Interleave
Размер файла : 451 Мбайт
Продолжительность : 43 м.
Общий поток : 1462 Кбит/сек
Программа кодирования : VirtualDubModRus 1.5.10.2 (build 2542/release)
Библиотека кодирования : VirtualDubMod build 2542/release

Видео
Идентификатор : 0
Формат : MPEG-4 Visual
Профиль формата : Advanced Simple@L5
Параметр BVOP формата : 1
Параметр QPel формата : Нет
Параметр GMC формата : Без точки перехода
Параметр матрицы формата : Выборочная
Идентификатор кодека : XVID
Идентификатор кодека/Подсказка : XviD
Продолжительность : 43 м.
Битрейт : 1192 Кбит/сек
Ширина : 720 пикселей
Высота : 400 пикселей
Соотношение сторон : 16:9
Частота кадров : 23,976 кадра/сек
Цветовое пространство : YUV
Субдискретизация насыщенности : 4:2:0
Битовая глубина : 8 бит
Тип развёртки : Прогрессивная
Метод сжатия : С потерями
Бит/(Пиксели*Кадры) : 0.173
Размер потока : 367 Мбайт (82%)
Библиотека кодирования : XviD 73

Аудио #1
Идентификатор : 1
Формат : MPEG Audio
Версия формата : Version 1
Профиль формата : Layer 3
Режим : Joint stereo
Расширение режима : MS Stereo
Идентификатор кодека : 55
Идентификатор кодека/Подсказка : MP3
Продолжительность : 43 м.
Вид битрейта : Постоянный
Битрейт : 128 Кбит/сек
Каналы : 2 канала
Частота : 48,0 КГц
Метод сжатия : С потерями
Размер потока : 39,5 Мбайт (9%)
Выравнивание : Соединение по промежуткам
Продолжительность промежутка : 42 мс. (1,00 видеокадр)
Время предзагрузки промежутка : 504 мс.

Аудио #2
Идентификатор : 2
Формат : MPEG Audio
Версия формата : Version 1
Профиль формата : Layer 3
Идентификатор кодека : 55
Идентификатор кодека/Подсказка : MP3
Продолжительность : 43 м.
Вид битрейта : Постоянный
Битрейт : 128 Кбит/сек
Каналы : 2 канала
Частота : 48,0 КГц
Метод сжатия : С потерями
Размер потока : 39,5 Мбайт (9%)
Выравнивание : Разделение по промежуткам
Продолжительность промежутка : 42 мс. (1,00 видеокадр)
Время предзагрузки промежутка : 500 мс.
Библиотека кодирования : LAME3.99r
Настройки программы : -m s -V 4 -q 2 -lowpass 17 -b 128


Однажды в сказке / Давным-давно / В некотором царстве скачать торрент


pb.wtf



Скачать Однажды в сказке через торрент http://pic.kartinco.top/images/8/e66r6.jpg Скачать фильм Однажды в сказке через торрент бесплантно в хорошем качестве Описание: Сюжет фэнтези разворачивается в двух мирах - современном и сказочном. Беззаботная жизнь 28-летней Эммы Свон меняется, когда ее ... 9.7 10 9
Info! Золотая раздача, скачанное не засчитывается.
Торрент: Зарегистрирован [2014-12-22 10:59] · скачан: 336 раз
Статус: √ проверено
Размер: 5.28 GB
Как cкачать? Как скачать Однажды в сказке через торрент | qTorrent

% Раздел Тема Автор DL S | L
Зарубежные сериалы [ 5.85 GB ] Однажды в сказке / Давным-давно / В некотором царстве / Once Upon a Time / Сезон: 4 / Серии 1-12 [2014 WEB-DLRip] DUB+Original Assasinca Скачать
1 | 0
Зарубежные сериалы [ 17.1 GB ] Однажды в сказке / Давным-давно / В некотором царстве / Once Upon a Time / Сезон: 4 / Серии 1-12 [2014 WEB-DL 720p ] DUB+Original Assasinca Скачать
1 | 0

28-11-2019 20:33  

Отключить всю рекламу на сайте

10-01-2015 19:15 Однажды в сказке Скачать торрент  

перевод верните старыйpb.wtf



10-03-2016 09:42 Однажды в сказке Скачать торрент  

скорости пожалуйста!!!!!!!!!!!pb.wtf



    Дорогой пользователь! Огромная просьба, поблагодарите релизера, оцените раздачу и оставьте свои комментарий, если Вы скачали Однажды в сказке через торрент бесплатно! Внесите свою лепту в развитие PiratBit!
    Комментировать посты могут только пользователи прошедшие не сложную регистрацию
    Показать сообщения:    

    Однажды в сказке через торрент
    Скачать бесплатно Однажды в сказке
    Однажды в сказке скачать торрент
    Однажды в сказке смотреть онлайн
    Cкачать фильм Однажды в сказке бесплатно
    Однажды в сказке скачать торрент в хорошем качестве
    Однажды в сказке смотреть онлайн бесплатно в хорошем качестве


    Вы не можете начинать темы
    Вы не можете отвечать на сообщения
    Вы не можете редактировать свои сообщения
    Вы не можете удалять свои сообщения
    Вы не можете голосовать в опросах
    Вы не можете прикреплять файлы к сообщениям
    Вы можете скачивать файлы