Ссылка на приватное зеркало нашего сайта всего за 1$. Внимание количество ограничено!!!

2 сезон

iTunes

1 сезон

1

iTunes

iTunes

iTunes

1 сезон

RePack

30

ИГРА 18+

pack

ВАЖНО

!!Акция!!

Alien_RageХит недели

RePack

MK11
pack

Забери бонус

RePack

jed

!!Акция!!

Alien_Rage

RePack

fifa19

RePack

Assassins Creed: Odyssey

RePack

NEED FOR SPEED™ PAYBACK

4 сезон

9 сезон

Бесстыжие 9 сезон

Все сериалы

все сериалы на PB.wtf

RePack

FAR CRY 5
  

Superнянь / Babysitting (Николас Бенаму, Филипп Лашо ) [2014, Комедия, BDRip 1080p] Дублированный [itunes] pb.wtf

Superнянь через торрент pb.wtf

Размер: 6.78 GB | Добавлен: 5 лет 10 мес. назад | Торрент скачан:593 раза
Скачать  

22-12-2014 15:04 Superнянь Скачать торрент  

Superнянь / Babysitting

Год выпуска: 2014
Страна: Франция
Жанр: Комедия
Продолжительность: 01:24:03
Перевод: Профессиональный (полное дублирование) | Дублированный [itunes]|

Режиссер: Николас Бенаму, Филипп Лашо
Продюсер: Кристоф Сервони, Фисцман Марк, Александр Акока
Сценарий: Жюльен Аррути, Тарек Будали, Филипп Лашо

В ролях: Филипп Лашо, Алиса Давид, Венсан Дезанья, Тарек Будали, Жюльен Аррути, Грегуар Людиг, Давид Марсе, Жерар Жюньо, Клотильда Куро, Филипп Дюкен

Описание: Клэр и Марк уезжают на все выходные, оставив своего сына под присмотром «хорошего парня» Фрэнка. На следующее утро парочку будит звонок полицейского, который сообщает, что их дом перевернут верх дном, а сын исчез! На месте происшествия полиция находит камеру, на которой запечатлены все события предыдущей ночи. Только посмотрев видео родители смогут узнать куда исчез их сын и что случилось в эту ночь… когда Фрэнк праздновал 30-летие.


6.60 (1162)


Качество: BDRip 1080p
Формат: MKV
Видео кодек: MPEG-4 AVC/H.264
Аудио кодек: AC3
Видео: MPEG-4 AVC/H.264, 1920x1040, ~9655 kb/s, 23,976 fps
Аудио: C3, 384 kb/s, 6 ch, 48.0 KHz [Русский]
Аудио: AC3, 640 kbps (6 ch), 48.0 KHz

Sup3rn9n.2014.D.BDRip.1080p.mkv
Format : Matroska
Format version : Version 4 / Version 2
File size : 6.78 GiB
Duration : 1h 24mn
Overall bit rate : 11.5 Mbps
Encoded date : UTC 2014-12-22 13:16:29
Writing application : mkvmerge v6.1.0 ('Old Devil') built on Mar 4 2013 09:10:42
Writing library : libebml v1.3.0 + libmatroska v1.4.0

Video
ID : 1
Format : AVC
Format/Info : Advanced Video Codec
Format profile : High@L4.1
Format settings, CABAC : Yes
Format settings, ReFrames : 4 frames
Codec ID : V_MPEG4/ISO/AVC
Duration : 1h 24mn
Bit rate : 9 655 Kbps
Width : 1 920 pixels
Height : 1 040 pixels
Display aspect ratio : 1.85:1
Frame rate : 23.976 fps
Color space : YUV
Chroma subsampling : 4:2:0
Bit depth : 8 bits
Scan type : Progressive
Bits/(Pixel*Frame) : 0.202
Stream size : 5.53 GiB (82%)
Writing library : x264 core 142 r2453 ea0ca51
Encoding settings : cabac=1 / ref=4 / deblock=1:0:0 / analyse=0x3:0x133 / me=umh / subme=8 / psy=1 / psy_rd=1.00:0.00 / mixed_ref=1 / me_range=16 / chroma_me=1 / trellis=1 / 8x8dct=1 / cqm=0 / deadzone=21,11 / fast_pskip=0 / chroma_qp_offset=-2 / threads=12 / lookahead_threads=2 / sliced_threads=0 / nr=0 / decimate=1 / interlaced=0 / bluray_compat=0 / constrained_intra=0 / bframes=3 / b_pyramid=2 / b_adapt=2 / b_bias=0 / direct=3 / weightb=1 / open_gop=0 / weightp=2 / keyint=250 / keyint_min=23 / scenecut=40 / intra_refresh=0 / rc_lookahead=50 / rc=2pass / mbtree=1 / bitrate=9655 / ratetol=1.0 / qcomp=0.60 / qpmin=0 / qpmax=69 / qpstep=4 / cplxblur=20.0 / qblur=0.5 / ip_ratio=1.40 / aq=1:1.00
Language : English
Default : Yes
Forced : No

Audio #1
ID : 2
Format : AC-3
Format/Info : Audio Coding 3
Mode extension : CM (complete main)
Format settings, Endianness : Big
Codec ID : A_AC3
Duration : 1h 24mn
Bit rate mode : Constant
Bit rate : 384 Kbps
Channel(s) : 6 channels
Channel positions : Front: L C R, Side: L R, LFE
Sampling rate : 48.0 KHz
Bit depth : 16 bits
Compression mode : Lossy
Stream size : 231 MiB (3%)
Language : Russian
Default : Yes
Forced : No

Audio #2
ID : 3
Format : DTS
Format/Info : Digital Theater Systems
Codec ID : A_DTS
Duration : 1h 24mn
Bit rate mode : Constant
Bit rate : 1 510 Kbps
Channel(s) : 6 channels
Channel positions : Front: L C R, Side: L R, LFE
Sampling rate : 48.0 KHz
Bit depth : 24 bits
Compression mode : Lossy
Stream size : 908 MiB (13%)
Title : French
Language : French
Default : No
Forced : No

Menu
00:00:00.000 : en:00:00:00.000
00:05:06.389 : en:00:05:06.389
00:08:33.763 : en:00:08:33.763
00:12:35.129 : en:00:12:35.129
00:16:14.223 : en:00:16:14.223
00:19:16.197 : en:00:19:16.197
00:25:00.708 : en:00:25:00.708
00:30:43.800 : en:00:30:43.800
00:34:40.620 : en:00:34:40.620
00:39:10.223 : en:00:39:10.223
00:44:48.519 : en:00:44:48.519
00:48:36.622 : en:00:48:36.622
00:52:12.379 : en:00:52:12.379
00:57:19.853 : en:00:57:19.853
00:59:41.745 : en:00:59:41.745
01:02:33.041 : en:01:02:33.041
01:08:12.672 : en:01:08:12.672
01:12:18.251 : en:01:12:18.251
01:15:11.674 : en:01:15:11.674
01:20:09.680 : en:01:20:09.680

скриншот   скриншот   скриншот   скриншот   скриншот  

Оформление: NarutoSasuke
pb.wtf



Скачать Superнянь через торрент http://pic.kartinco.top/images/8/6p32l.jpg Скачать фильм Superнянь через торрент бесплантно в хорошем качестве Описание: Клэр и Марк уезжают на все выходные, оставив своего сына под присмотром «хорошего парня» Фрэнка. На следующее утро парочку будит ... 9.1 10 14
Торрент: Зарегистрирован [2014-12-22 15:04] · скачан: 593 раз
Статус: √ проверено
Размер: 6.78 GB
Как cкачать? Как скачать Superнянь через торрент | qTorrent

% Раздел Тема Автор DL S | L
Фильмы 2015 [DVDrip, WEB-DLRip, HDrip] [ 1.54 GB ] Superнянь 2 / Babysitting 2 [2015 BDRip] - Twi7ter Скачать
1 | 0
Фильмы (Blu-ray, BD-Remux, HDDVD) [ 15.34 GB ] Superнянь 2 / Babysitting 2 [2015 BD Remux 1080p] 2xDUB bober100 Скачать
1 | 0
Фильмы 2015 [DVDrip, WEB-DLRip, HDrip] [ 2.51 GB ] Superнянь 2 / Babysitting 2 [2015 BDRip-AVC] - - ExKinoRay Enigma2010 Скачать
1 | 0
Фильмы 2015 [DVDrip, WEB-DLRip, HDrip] [ 1.37 GB ] Superнянь 2 / Babysitting 2 [2015 WEB-DLRip] $-DRON-$ Скачать
1 | 0
R.G. Resident & PiratVoice - Фильмы, Видео [ 1.46 GB ] Superнянь 2 / Babysitting 2 [2015 WEB-DLRip-AVC ] От R.G.Resident White Smoke Скачать
1 | 0
Фильмы (WEB-DL 720p, 1080p) [ 3.59 GB ] Superнянь 2 / Babysitting 2 [2015 WEB-DL 1080p ] White Smoke Скачать
2 | 0
Фильмы (WEB-DL 720p, 1080p) [ 2.87 GB ] Superнянь 2 / Babysitting 2 [2015 WEB-DL 720p] $-DRON-$ Скачать
1 | 0

28-11-2019 20:33  

Отключить всю рекламу на сайте

    Дорогой пользователь! Огромная просьба, поблагодарите релизера, оцените раздачу и оставьте свои комментарий, если Вы скачали Superнянь через торрент бесплатно! Внесите свою лепту в развитие PiratBit!
    Комментировать посты могут только пользователи прошедшие не сложную регистрацию
    Показать сообщения:    

    Superнянь через торрент
    Скачать бесплатно Superнянь
    Superнянь скачать торрент
    Superнянь смотреть онлайн
    Cкачать фильм Superнянь бесплатно
    Superнянь скачать торрент в хорошем качестве
    Superнянь смотреть онлайн бесплатно в хорошем качестве


    Вы не можете начинать темы
    Вы не можете отвечать на сообщения
    Вы не можете редактировать свои сообщения
    Вы не можете удалять свои сообщения
    Вы не можете голосовать в опросах
    Вы не можете прикреплять файлы к сообщениям
    Вы можете скачивать файлы