Ссылка на приватное зеркало нашего сайта всего за 1$. Внимание количество ограничено!!!

2 сезон

iTunes

1 сезон

1

2 сезон

2 сезон

iTunes

1 сезон

RePack

30

Ultimate

ВАЖНО

ИГРА 18+

pack

RePack

MK11
pack

Забери бонус

RePack

jed

!!Акция!!

Alien_Rage

RePack

fifa19

RePack

Assassins Creed: Odyssey

RePack

NEED FOR SPEED™ PAYBACK

4 сезон

9 сезон

Бесстыжие 9 сезон

Все сериалы

все сериалы на PB.wtf

RePack

FAR CRY 5
  

Занесло / Перенаправленный / Redirected (Эмилис Веливис) [2014 г., боевик, триллер, драма, комедия, WEB-DL-720p] VO[RAIM] pb.wtf

Занесло через торрент pb.wtf

Размер: 3.27 GB | Добавлен: 5 лет 11 мес. назад | Торрент скачан:213 раз
Скачать  

22-12-2014 17:38 Занесло Скачать торрент  

Информация о фильме

Название: Занесло

Оригинальное название: Rеdirected

Год выпуска: 2014

Выпущено: Великобритания, Литва / Kinokultas, Wellington Films

Продолжительность: 01:39:03

Перевод: Любительский (одноголосый, закадровый) - RAIM

Жанр: Боевик, триллер, комедия

Режиссер: Эмилис Веливис

В ролях: Винни Джонс, Скот Уильямс, Гил Дарнелл, Оливер Джексон, Энтони Страхан, Андрюс Жюраускас, Витаутас Шапранаускас, Артур Смольянинов, Вита Сяусюнайте, Моника



Описание: Картина повествует о необычайных приключениях в Литве четырёх англичан — Майкла, Джонни, Бена и Тима. После удачного налёта в Лондоне на нелегальное казино, «славная четвёрка» садится в самолет, летящий в Малайзию. Кажется, все идёт по плану. Но… Никто не мог предусмотреть проделок вулкана Эйяфьядлайёкюдля, извержение которого вынудило самолет с англичанами сесть в Вильнюсе. Мало того, помимо местных разборок и приключений на все части тела, друзьям приходится спасаться от жаждущего мести владельца ограбленного казино.









Файл

Качество: WEB-DL 720p

Формат: MKV

Видео кодек: AVC

Аудио кодек: AC3

Видео: MPEG4/AVC, 3867 Кбит/сек, 1280х536 (2.40:1), 23.976 кадра/сек

Аудио 1: AC-3, 48.0 KHz, 6 ch, 384 Kbps, CBR (Russian)

Аудио 2: AC3, 6 каналов, 384 Кбит/сек | Английский

Навигация по главам: Есть
Общее

Уникальный идентификатор : 199565159477439461736832512577313889457 (0x9622DA05B1F707C0AA0F93957E76DCB1)

Полное имя : Redirected. (2014) WEB-DL 720p.mkv

Формат : Matroska

Версия формата : Version 2

Размер файла : 3,14 Гбайт

Продолжительность : 1 ч. 39 м.

Общий поток : 4534 Кбит/сек

Название фильма : Redirected. 2014

Дата кодирования : UTC 2014-12-22 11:25:49

Программа кодирования : mkvmerge v5.8.0 ('No Sleep / Pillow') built on Sep 2 2012 15:37:04

Библиотека кодирования : libebml v1.2.3 + libmatroska v1.3.0



Видео

Идентификатор : 1

Формат : AVC

Формат/Информация : Advanced Video Codec

Профиль формата : Main@L3.1

Параметр CABAC формата : Нет

Параметр ReFrames формата : 2 кадра

Идентификатор кодека : V_MPEG4/ISO/AVC

Продолжительность : 1 ч. 39 м.

Битрейт : 3867 Кбит/сек

Ширина : 1280 пикселей

Высота : 536 пикселей

Соотношение сторон : 2,40:1

Режим частоты кадров : Постоянный

Частота кадров : 23,976 кадра/сек

Цветовое пространство : YUV

Субдискретизация насыщенности : 4:2:0

Битовая глубина : 8 бит

Тип развёртки : Прогрессивная

Бит/(Пиксели*Кадры) : 0.235

Размер потока : 2,68 Гбайт (85%)

Заголовок : RARBG

Язык : English

Default : Да

Forced : Нет

Основные цвета : BT.709

Характеристики трансфера : BT.709

Коэффициенты матрицы : BT.709



Аудио #1

Идентификатор : 2

Формат : AC-3

Формат/Информация : Audio Coding 3

Расширение режима : CM (complete main)

Параметр Endianness формата : Big

Идентификатор кодека : A_AC3

Продолжительность : 1 ч. 39 м.

Вид битрейта : Постоянный

Битрейт : 384 Кбит/сек

Каналы : 6 канала

Расположение каналов : Front: L R

Частота : 48,0 КГц

Битовая глубина : 16 бит

Метод сжатия : С потерями

Размер потока : 136 Мбайт (4%)

Заголовок : L1 | Xixidok

Язык : Russian

Default : Да

Forced : Нет



Аудио #2

Идентификатор : 3

Формат : AC-3

Формат/Информация : Audio Coding 3

Расширение режима : CM (complete main)

Параметр Endianness формата : Big

Идентификатор кодека : A_AC3

Продолжительность : 1 ч. 39 м.

Вид битрейта : Постоянный

Битрейт : 384 Кбит/сек

Каналы : 6 каналов

Расположение каналов : Front: L C R, Side: L R, LFE

Частота : 48,0 КГц

Битовая глубина : 16 бит

Метод сжатия : С потерями

Размер потока : 272 Мбайт (8%)

Заголовок : Original

Язык : English

Default : Нет

Forced : Нет
pb.wtf



Скачать Занесло через торрент http://i.imgur.com/BadSV3O.jpg Скачать фильм Занесло через торрент бесплантно в хорошем качестве Описание: Картина повествует о необычайных приключениях в Литве четырёх англичан — Майкла, Джонни, Бена и Тима. После удачного налёта в ... 9.7 10 6
Торрент: Зарегистрирован [2014-12-22 17:38] · скачан: 213 раз
Статус: T временная
Размер: 3.27 GB
Как cкачать? Как скачать Занесло через торрент | qTorrent

% Раздел Тема Автор DL S | L
T Фильмы 2014 (Звук TS, Cam, VO, DVO) [ 1.37 GB ] Занесло / Перенаправленный / Redirected [2014 WEB-DLRip Любительский одноголосый][RAIM] Ворон Скачать
1 | 0

28-11-2019 20:33  

Отключить всю рекламу на сайте

22-12-2014 18:12 Занесло Скачать торрент  

как фильмец??pb.wtf



    Дорогой пользователь! Огромная просьба, поблагодарите релизера, оцените раздачу и оставьте свои комментарий, если Вы скачали Занесло через торрент бесплатно! Внесите свою лепту в развитие PiratBit!
    Комментировать посты могут только пользователи прошедшие не сложную регистрацию
    Показать сообщения:    

    Занесло через торрент
    Скачать бесплатно Занесло
    Занесло скачать торрент
    Занесло смотреть онлайн
    Cкачать фильм Занесло бесплатно
    Занесло скачать торрент в хорошем качестве
    Занесло смотреть онлайн бесплатно в хорошем качестве


    Вы не можете начинать темы
    Вы не можете отвечать на сообщения
    Вы не можете редактировать свои сообщения
    Вы не можете удалять свои сообщения
    Вы не можете голосовать в опросах
    Вы не можете прикреплять файлы к сообщениям
    Вы можете скачивать файлы