Ссылка на приватное зеркало нашего сайта всего за 1$. Внимание количество ограничено!!!

2 сезон

iTunes

1 сезон

1

2 сезон

2 сезон

iTunes

1 сезон

RePack

30

Новинка

ВАЖНО

ИГРА 18+

pack

RePack

MK11
pack

Забери бонус

RePack

jed

!!Акция!!

Alien_Rage

RePack

fifa19

RePack

Assassins Creed: Odyssey

RePack

NEED FOR SPEED™ PAYBACK

4 сезон

9 сезон

Бесстыжие 9 сезон

Все сериалы

все сериалы на PB.wtf

RePack

FAR CRY 5
  

Уэнтуорт (Вентворт) / Wentworth / Сезон: 2 / Серии 1-6(10) (Рег Уотсон, Кевин Карлин, Тори Гаррет, Катрин Миллар) [2014 г., Криминал, драма, ремейк, HDRip,] MVO (BaibaKo) + Original pb.wtf

Уэнтуорт через торрент pb.wtf

Размер: 4.6 GB | Добавлен: 5 лет 11 мес. назад | Торрент скачан:16 раз
Скачать  

22-12-2014 17:40 Уэнтуорт Скачать торрент  

Уэнтуорт (Вентворт) / Wentworth
Год выпуска: 2014
Страна: Австралия / FremantleMedia Australia
Жанр: Криминал, драма, ремейк
Продолжительность: 00:47:00
Перевод: Профессиональный многоголосый (BaibaKo)

Режиссер: Рег Уотсон, Кевин Карлин, Тори Гаррет, Катрин Миллар



В ролях: Николь Да Силва, Лианна Уолсмен, Даниэль Кормак, Крис МакКвейд, Кейт Эткинсон, Шарина Клэнтон, Селия Айрлэнд, Кэтрин МакКлементс, Робби Магасива, Аарон Джеффри

Описание: Вентворт - драматический сериал с очень динамичным и захватывающим сюжетом о сотрудниках и заключенных женской тюрьмы строгого режима в Австралии. Здесь существуют свои правила выживания, несоблюдение которых может стоить жизни. Каждая серия — это история жизни одной из героинь. Мы лучше узнаем о её характере, об обстоятельствах жизни, которые привели в тюрьму. И оказывается, что разница между заключенными и служащими тюрьмы не такая уже большая, и те, и другие являются узниками, только каждый по-своему.

Качество: HDRip
Формат: AVI
Видео кодек: XviD
Аудио кодек: AC3
Видео: 720x400 (16:9), 25.000 fps, 2 000 Kbps (0.278 bit/pixel)
Аудио#1: 48.0 KHz, 2 ch, 192 Kbps, CBR (Russian)
Аудио#2: 48.0 KHz, 2 ch, 192 Kbps, CBR (English)
Релиз от:

Перевод: Янина Галицкая
Озвучка: Ольга Мотрич, Татьяна Оболевич, Anna_Smile и Олекса Мельник
Рип и сведение звука: super12308
Внимание! Раздача ведётся путём добавления новых серий; при каждом добавлении создётся новый торрент. Чтобы начать докачку новой серии, пользователям необходимо сделать следующее:
(1) остановить скачивание,
(2) удалить старый торрент у себя из клиента (старые серии удалять не надо),
(3) скачать новый торрент и запустить его у себя в клиенте вместо старого, при этом указать клиенту путь в старую папку куда и должно происходить скачивание новых серий.
Ваш клиент при этом должен произвести хеширование (проверку) старой папки (если не производит сам - помогите ему сделать это), и будет докачивать только те серии которых у вас ещё нет. Старые серии при этом не удаляются, а продолжают раздаваться!
Eсли вы уже удалили старые серии, то предотвратить повторную закачку старых серий можно, отжав галочку в соответсвующих местах при запуске нового торрента. По возможности, желательно не удалять старые серии как можно дольше чтобы релизёр не столько продолжал раздавать старые серии, а смог сконцентрироваться на новых.





Общее
Полное имя : H:\Уэнтуорт (Вентворт)\Wentworth.S02.HDRip.Rus.Eng.MediaClub\Wentworth.S02E01.HDRip.Rus.Eng.MediaClub.avi
Формат : AVI
Формат/Информация : Audio Video Interleave
Размер файла : 795 Мбайт
Продолжительность : 46 м.
Общий поток : 2398 Кбит/сек
Название фильма : Wentworth S02E01 - Born Again
Режиссёр : MediaClub.TV
Программа кодирования : VirtualDubMod 1.5.10.2 (build 2540/release)
Библиотека кодирования : VirtualDubMod build 2540/release

Видео
Идентификатор : 0
Формат : MPEG-4 Visual
Профиль формата : Advanced Simple@L5
Параметр BVOP формата : Нет
Параметр QPel формата : Нет
Параметр GMC формата : Без точки перехода
Параметр матрицы формата : Выборочная
Идентификатор кодека : XVID
Идентификатор кодека/Подсказка : XviD
Продолжительность : 46 м.
Битрейт : 2000 Кбит/сек
Ширина : 720 пикселей
Высота : 400 пикселей
Соотношение сторон : 16:9
Частота кадров : 25,000 кадров/сек
Цветовое пространство : YUV
Субдискретизация насыщенности : 4:2:0
Битовая глубина : 8 бит
Тип развёртки : Прогрессивная
Метод сжатия : С потерями
Бит/(Пиксели*Кадры) : 0.278
Размер потока : 663 Мбайт (83%)
Библиотека кодирования : XviD 73

Аудио #1
Идентификатор : 1
Формат : AC-3
Формат/Информация : Audio Coding 3
Расширение режима : CM (complete main)
Параметр Endianness формата : Big
Идентификатор кодека : 2000
Продолжительность : 46 м.
Вид битрейта : Постоянный
Битрейт : 192 Кбит/сек
Каналы : 2 канала
Расположение каналов : Front: L R
Частота : 48,0 КГц
Битовая глубина : 16 бит
Метод сжатия : С потерями
Размер потока : 63,6 Мбайт (8%)
Выравнивание : Разделение по промежуткам
Продолжительность промежутка : 40 мс. (1,00 видеокадр)
Время предзагрузки промежутка : 500 мс.
Заголовок : Baibako

Аудио #2
Идентификатор : 2
Формат : AC-3
Формат/Информация : Audio Coding 3
Расширение режима : CM (complete main)
Параметр Endianness формата : Big
Идентификатор кодека : 2000
Продолжительность : 46 м.
Вид битрейта : Постоянный
Битрейт : 192 Кбит/сек
Каналы : 2 канала
Расположение каналов : Front: L R
Частота : 48,0 КГц
Битовая глубина : 16 бит
Метод сжатия : С потерями
Размер потока : 63,6 Мбайт (8%)
Выравнивание : Разделение по промежуткам
Продолжительность промежутка : 40 мс. (1,00 видеокадр)
Время предзагрузки промежутка : 500 мс.
Заголовок : English


Уэнтуорт (Вентворт) скачать торрент


pb.wtf



Скачать Уэнтуорт через торрент http://pic.kartinco.top/images/8/jr479.jpg Скачать фильм Уэнтуорт через торрент бесплантно в хорошем качестве Описание: Вентворт - драматический сериал с очень динамичным и захватывающим сюжетом о сотрудниках и заключенных женской тюрьмы строгого ... 10 10 4
Info! Серебряная раздача, засчитывается только 50% скачанного.
Торрент: Зарегистрирован [2014-12-22 17:40] · скачан: 16 раз
Статус: √ проверено
Размер: 4.6 GB
Как cкачать? Как скачать Уэнтуорт через торрент | qTorrent

28-11-2019 20:33  

Отключить всю рекламу на сайте

    Дорогой пользователь! Огромная просьба, поблагодарите релизера, оцените раздачу и оставьте свои комментарий, если Вы скачали Уэнтуорт через торрент бесплатно! Внесите свою лепту в развитие PiratBit!
    Комментировать посты могут только пользователи прошедшие не сложную регистрацию
    Показать сообщения:    

    Уэнтуорт через торрент
    Скачать бесплатно Уэнтуорт
    Уэнтуорт скачать торрент
    Уэнтуорт смотреть онлайн
    Cкачать фильм Уэнтуорт бесплатно
    Уэнтуорт скачать торрент в хорошем качестве
    Уэнтуорт смотреть онлайн бесплатно в хорошем качестве


    Вы не можете начинать темы
    Вы не можете отвечать на сообщения
    Вы не можете редактировать свои сообщения
    Вы не можете удалять свои сообщения
    Вы не можете голосовать в опросах
    Вы не можете прикреплять файлы к сообщениям
    Вы можете скачивать файлы