Ссылка на приватное зеркало нашего сайта всего за 1$. Внимание количество ограничено!!!

2 сезон

iTunes

1 сезон

1

iTunes

iTunes

iTunes

1 сезон

RePack

30

ИГРА 18+

pack

ВАЖНО

!!Акция!!

Alien_RageХит недели

RePack

MK11
pack

Забери бонус

RePack

jed

!!Акция!!

Alien_Rage

RePack

fifa19

RePack

Assassins Creed: Odyssey

RePack

NEED FOR SPEED™ PAYBACK

4 сезон

9 сезон

Бесстыжие 9 сезон

Все сериалы

все сериалы на PB.wtf

RePack

FAR CRY 5
  

Все вернется / Серии 1-4 из 4 (Алексей Лисовец) [2014, Россия, мелодрама, WEB-DLRip) pb.wtf

Все вернется через торрент pb.wtf

Размер: 2.35 GB | Добавлен: 5 лет 10 мес. назад | Торрент скачан:387 раз
Скачать  

23-12-2014 06:16 Все вернется Скачать торрент  

Все вернется


  • Год выпуска: 2014
  • Страна: Россия
  • Жанр: мелодрама
  • Продолжительность: 00:42:55 (Серия)
  • Перевод: Не требуется

  • Режиссер: Алексей Лисовец
  • В ролях:

    Леонид Громов (Павел Корсунов), Андрей Кузичев (Александр Мальцев), Валерия Федорович (Наталья Корсунова), Александра Кузенкина (Лиля Печенкина), Валентин Томусяк (Дмитрий Соболев), Тарас Мельничук (студент)

  • Описание:
    Если человек случайно, невзначай совершает серьезную ошибку, должен ли он быть за это сурово наказан? Где критерий его вины? Кто возьмет на себя роль судьи? Наташа Корсунова молода, красива, умна. Она с удовольствием живет в любви, понимании и уважении. Она уверена в том, что мир создан специально для нее. Ее отец - уважаемый в городе врач, он помог появиться на свет не одному десятку малышей. Но однажды ему не удается спасти во время родов ни мать, ни дитя. И обезумевший от горя муж - Александр Мальцев - обвиняет его во всем. Прошел год с небольшим. Время внесло в судьбы героев лишь незначительные перемены. Как-то во время своей традиционной утренней пробежки Наташа знакомится с молодым мужчиной. Им оказывается Александр. Девушка «теряет голову». Умный, непохожий на ее друзей, с некоей тайной Александр всецело занимает время и сердце Наташи. Когда же она знакомит любимого с отцом, Александр сразу же исчезает из ее жизни. Что произошло? Ненависть Александра к «убийце» перешла на его дочь? Или знакомство с Наташей было частью запланированной мести? И на что способна настоящая любовь? Ответы на эти вопросы пытаются найти герои фильма.
  • Рейтинг:



  • Качество: WEB-DLRip
  • Формат: :AVI
  • Видео кодек: XviD
  • Аудио кодек: AC3
  • Видео: 720x400 (16:9), 1751 kbps, 29,970 fps, 0,203 bpp
  • Аудио: 2.0 / 48 kHz / 192 kbps / 16 bit
  • Релиз от: GEKADOL

    Код:

    General
    Complete name                            : D:\Фильмы\Vsio.vernetsia.2014..WEB-DLRip.Files-x.GeneralFilm\02.Vsio.vernetsia.2014..WEB-DLRip.Files-x.GeneralFilm.avi
    Format                                   : AVI
    Format/Info                              : Audio Video Interleave
    File size                                : 600 MiB
    Duration                                 : 42mn 55s
    Overall bit rate                         : 1 955 Kbps
    Writing application                      : VirtualDubMod 1.5.10.3 | www.virtualdub-fr.org || (build 2550/release)
    Writing library                          : VirtualDubMod build 2550/release

    Video
    ID                                       : 0
    Format                                   : MPEG-4 Visual
    Format profile                           : Advanced Simple@L5
    Format settings, BVOP                    : 1
    Format settings, QPel                    : No
    Format settings, GMC                     : No warppoints
    Format settings, Matrix                  : Custom
    Codec ID                                 : XVID
    Codec ID/Hint                            : XviD
    Duration                                 : 42mn 55s
    Bit rate                                 : 1 751 Kbps
    Width                                    : 720 pixels
    Height                                   : 400 pixels
    Display aspect ratio                     : 16:9
    Frame rate                               : 29.970 fps
    Color space                              : YUV
    Chroma subsampling                       : 4:2:0
    Bit depth                                : 8 bits
    Scan type                                : Progressive
    Compression mode                         : Lossy
    Bits/(Pixel*Frame)                       : 0.203
    Stream size                              : 538 MiB (90%)
    Writing library                          : XviD 73

    Audio
    ID                                       : 1
    Format                                   : AC-3
    Format/Info                              : Audio Coding 3
    Mode extension                           : CM (complete main)
    Codec ID                                 : 2000
    Duration                                 : 42mn 55s
    Bit rate mode                            : Constant
    Bit rate                                 : 192 Kbps
    Channel(s)                               : 2 channels
    Channel positions                        : Front: L R
    Sampling rate                            : 48.0 KHz
    Bit depth                                : 16 bits
    Compression mode                         : Lossy
    Stream size                              : 58.9 MiB (10%)
    Alignment                                : Split accross interleaves
    Interleave, duration                     : 33 ms (1.00 video frame)
    Interleave, preload duration             : 500 ms


    Скриншоты:



    pb.wtf



  • Скачать Все вернется через торрент http://i68.fastpic.ru/big/2014/1223/90/8bf85d27635f98ccb21f9c4d1ddef390.jpg Скачать фильм Все вернется через торрент бесплантно в хорошем качестве Описание: Если человек случайно, невзначай совершает серьезную ошибку, должен ли он быть за это сурово наказан? Где критерий его вины? Кто ... 9 10 8
    Info! Золотая раздача, скачанное не засчитывается.
    Торрент: Зарегистрирован [2014-12-23 06:16] · скачан: 387 раз
    Статус: √ проверено
    Размер: 2.35 GB
    Как cкачать? Как скачать Все вернется через торрент | qTorrent

    28-11-2019 20:33  

    Отключить всю рекламу на сайте

      Дорогой пользователь! Огромная просьба, поблагодарите релизера, оцените раздачу и оставьте свои комментарий, если Вы скачали Все вернется через торрент бесплатно! Внесите свою лепту в развитие PiratBit!
      Комментировать посты могут только пользователи прошедшие не сложную регистрацию
      Показать сообщения:    

      Все вернется через торрент
      Скачать бесплатно Все вернется
      Все вернется скачать торрент
      Все вернется смотреть онлайн
      Cкачать фильм Все вернется бесплатно
      Все вернется скачать торрент в хорошем качестве
      Все вернется смотреть онлайн бесплатно в хорошем качестве


      Вы не можете начинать темы
      Вы не можете отвечать на сообщения
      Вы не можете редактировать свои сообщения
      Вы не можете удалять свои сообщения
      Вы не можете голосовать в опросах
      Вы не можете прикреплять файлы к сообщениям
      Вы можете скачивать файлы