Ссылка на приватное зеркало нашего сайта всего за 1$. Внимание количество ограничено!!!

2 сезон

iTunes

1 сезон

1

iTunes

iTunes

iTunes

1 сезон

RePack

30

ИГРА 18+

pack

ВАЖНО

!!Акция!!

Alien_RageХит недели

RePack

MK11
pack

Забери бонус

RePack

jed

!!Акция!!

Alien_Rage

RePack

fifa19

RePack

Assassins Creed: Odyssey

RePack

NEED FOR SPEED™ PAYBACK

4 сезон

9 сезон

Бесстыжие 9 сезон

Все сериалы

все сериалы на PB.wtf

RePack

FAR CRY 5
  

Пес из Лас-Вегаса / Rover Dangerfield (Джим Джордж, Боб Сили) [1991 г., мультфильм, комедия, семейный, DVDRip, [AVO] (Ю. Живов)] pb.wtf

Пес из Лас-Вегаса через торрент pb.wtf

Размер: 746 MB | Добавлен: 5 лет 9 мес. назад | Торрент скачан:57 раз
Скачать  

23-12-2014 09:12 Пес из Лас-Вегаса Скачать торрент  

Пес из Лас-Вегаса / Rover Dangerfield
Год выпуска: 1991
Страна: США
Жанр: мультфильм, комедия, семейный
Продолжительность: 1:13:45
Перевод: Авторский (одноголосый закадровый) Ю. Живов
Субтитры: нет
Режиссер: Джим Джордж, Боб Сили
Продюссер: Уиллард Кэрролл, Томас Л. Уилхайт, Дэвид Роберт Кобб
Сценарий: Родни Дейнджерфилд, Харольд Рэмис
Премьера в мире: 1 июля 1991
IMDB 6.00 (2099)

В ролях: Родни Дейнджерфилд, Сьюзэн Бойд, Ронни Шелл, Нед Льюк, Шон Сауфвик, Дэна Хилл, Сэл Ланди, Том Уильямс, Крис Латта, Боб Берген
Описание: Ровер — пушистый, упитанный пес, привык к роскошной жизни в блестящем Лас-Вегасе. Огни большого юрода, ласковая хозяйка-танцовщица, косточки из лучших ресторанов... Но превратности судьбы забрасываю Ровера на самую обыкновенную ферму! Здесь он узнает о жизни мною нового: чтобы тебя кормили — нужно работать, а пасти овец он не умеет.Здесь не видели блестящих огней рекламы, но любуются светом звезд. Зимой здесь придется бегать по колючему снегу, а не греться на коврике... И волки здесь водятся самые настоящие. Но что не сделаешь, чтобы добиться уважения хозяев и расположения самой красивой овчарки в деревне? Ровера ожидают тяжелая работа и захватывающие приключения!
Качество: DVDRip
Формат: AVI
Видео кодек: XviD
Аудио кодек: MP3
Видео: 560x416 (1.35:1), 29.970 fps, XviD MPEG-4 ~1277 kbps avg, 0.18 bit/pixel
Аудио#1: 48 kHz, MPEG Layer 3, 2 ch, ~128.00 kbps avg
Релиз от: anton210896


General
Complete name : E:\rip\Rover.Dangerfield.1991.Dt.DVDRip.XviD.MP3.AVO.700MB.avi
Format : AVI
Format/Info : Audio Video Interleave
File size : 746 MiB
Duration : 1h 13mn
Overall bit rate : 1 414 Kbps
Movie name : Ровер Денжерфилд (1991) / DVDRip by anton210896
Director : anton210896
Genre : мультфильм, комедия
Writing application : VirtualDubMod 1.5.4.1 (build 2178/release)
Copyright : anton210896 (piratbit.cc)
Comment : 22.12.14

Video
ID : 0
Format : MPEG-4 Visual
Format profile : Advanced Simple@L5
Format settings, BVOP : 1
Format settings, QPel : No
Format settings, GMC : No warppoints
Format settings, Matrix : Custom
Codec ID : XVID
Codec ID/Hint : XviD
Duration : 1h 13mn
Bit rate : 1 277 Kbps
Width : 560 pixels
Height : 416 pixels
Display aspect ratio : 4:3
Frame rate : 29.970 fps
Color space : YUV
Chroma subsampling : 4:2:0
Bit depth : 8 bits
Scan type : Progressive
Compression mode : Lossy
Bits/(Pixel*Frame) : 0.183
Stream size : 674 MiB (90%)
Writing library : XviD 64

Audio
ID : 1
Format : MPEG Audio
Format version : Version 1
Format profile : Layer 3
Mode : Joint stereo
Codec ID : 55
Codec ID/Hint : MP3
Duration : 1h 13mn
Bit rate mode : Constant
Bit rate : 128 Kbps
Channel(s) : 2 channels
Sampling rate : 48.0 KHz
Compression mode : Lossy
Stream size : 67.5 MiB (9%)
Alignment : Aligned on interleaves
Interleave, duration : 67 ms (2.00 video frames)
Interleave, preload duratio : 504 ms
Writing library : LAME3.98r
Encoding settings : -m j -V 4 -q 2 -lowpass 17 -b 128


Пес из Лас-Вегаса скачать торрент


pb.wtf
!Ворон писал(а):

Модераторов прошу статус не менять!!!



Скачать Пес из Лас-Вегаса через торрент http://i64.fastpic.ru/big/2014/1223/2c/30abc3b31f264d784efd8736dc852f2c.jpg Скачать фильм Пес из Лас-Вегаса через торрент бесплантно в хорошем качестве Описание: Ровер — пушистый, упитанный пес, привык к роскошной жизни в блестящем Лас-Вегасе. Огни большого юрода, ласковая ... 10 10 6
Торрент: Зарегистрирован [2014-12-23 09:12] · скачан: 57 раз
Статус: √ проверено
Размер: 746 MB
Как cкачать? Как скачать Пес из Лас-Вегаса через торрент | qTorrent

% Раздел Тема Автор DL S | L
Иностранные мультфильмы [ 700 MB ] Пес из Лас-Вегаса  / Rover Dangerfield [1991 мультфильм DVDRip] dimon1695 Скачать
1 | 0

28-11-2019 20:33  

Отключить всю рекламу на сайте

    Дорогой пользователь! Огромная просьба, поблагодарите релизера, оцените раздачу и оставьте свои комментарий, если Вы скачали Пес из Лас-Вегаса через торрент бесплатно! Внесите свою лепту в развитие PiratBit!
    Комментировать посты могут только пользователи прошедшие не сложную регистрацию
    Показать сообщения:    

    Пес из Лас-Вегаса через торрент
    Скачать бесплатно Пес из Лас-Вегаса
    Пес из Лас-Вегаса скачать торрент
    Пес из Лас-Вегаса смотреть онлайн
    Cкачать фильм Пес из Лас-Вегаса бесплатно
    Пес из Лас-Вегаса скачать торрент в хорошем качестве
    Пес из Лас-Вегаса смотреть онлайн бесплатно в хорошем качестве


    Вы не можете начинать темы
    Вы не можете отвечать на сообщения
    Вы не можете редактировать свои сообщения
    Вы не можете удалять свои сообщения
    Вы не можете голосовать в опросах
    Вы не можете прикреплять файлы к сообщениям
    Вы можете скачивать файлы