2 сезон

iTunes

MVO

1

2 сезон

iTunes

iTunes

1 сезон

RePack

30

Ultimate

ВАЖНО

ИГРА 18+

pack

RePack

MK11
pack

Легкие деньги

RePack

jed

RePack

fifa19

RePack

RDR2

RePack

NEED FOR SPEED™ PAYBACK

4 сезон

9 сезон

Бесстыжие 9 сезон

Все сериалы

все сериалы на PB.wtf

RePack

FAR CRY 5

Anonymous, добрый день, мы не успеваем собрать деньги на оплату серверов за декабрь и январь, помогите нам пожалуйста в это трудное время. В качестве благодарности мы отключим Вам всю рекламу на сайте (укажите свой ник в строку Ваше имя)!

×
  
Magnet ссылка

История британской науки / Science Britannica / Сезон: 1 / Серии 1-3 (3)(Gideon Bradshaw) [2013 г., документальный, история, HDTVRip 1080p]DVO (Омикрон) + Original pb.wtf

История британской науки через торрент pb.wtf

Размер: 8.09 GB | Добавлен: 6 лет 1 мес. назад | Торрент скачан:8 раз
Скачать  

23-12-2014 10:22 История британской науки Скачать торрент  

История британской науки / Science Britannica
Год выпуска: 2013
Страна: Великобритания
Жанр: документальный, история
Продолжительность: 01:00:00
Перевод: Профессиональный двухголосый

Режиссер: Gideon Bradshaw



В ролях: Брайан Кокс и др.

Описание: Профессор Брайан Кокс проведет зрителей сквозь 350 лет британской науки, чтобы показать что такое наука, что за люди ее практикуют, и как она неразрывно связана с прошлым, настоящим и будущим всех и каждого из нас.

Качество: HDTVRip 1080p
Формат: m2ts (BDAV)
Видео кодек: AVC
Видео: 1920x1080 (16:9), 25.000 fps, 6 189 Kbps (0.119 bit/pixel)
Аудио#1: Russian: 48 kHz/16-bit, AC3, 2/0 (L,R) ch, ~192.00 kbps avg |Двухголосый закадровый, студия «Омикрон»|
Аудио#2: English: 48 kHz/16-bit, AC3, 2/0 (L,R) ch, ~192.00 kbps avg
Релиз от:
Перевод Михаила Халецкого. Озвучено студией «Омикрон» специально для HDCLUB.
Задействовано 2 актера.
Русская дорожка получена наложением чистого голоса.
Перевод и озвучивание осуществлено в рамках сервиса "Озвучивание"
скриншот   скриншот   скриншот   скриншот   скриншот   скриншот   скриншот  

Общее
Идентификатор : 1 (0x1)
Полное имя : H:\История британской науки\Science.Britannica.2013.1080i.HDCLUB\Science.Britannica.2013.E01.1080i.HDTV.Rus.Eng.HDCLUB.m2ts
Формат : BDAV
Формат/Информация : Blu-ray Video
Размер файла : 2,81 Гбайт
Продолжительность : 58 м.
Режим общего битрейта : Переменный
Общий поток : 6856 Кбит/сек
Максимальный общий битрейт : 35,5 Мбит/сек

Видео
Идентификатор : 4113 (0x1011)
Идентификатор меню : 1 (0x1)
Формат : AVC
Формат/Информация : Advanced Video Codec
Профиль формата : High@L4.0
Параметр CABAC формата : Да
Параметр ReFrames формата : 4 кадра
Идентификатор кодека : 27
Продолжительность : 58 м.
Вид битрейта : Переменный
Битрейт : 6189 Кбит/сек
Максимальный битрейт : 40,0 Мбит/сек
Ширина : 1920 пикселей
Высота : 1080 пикселей
Соотношение сторон : 16:9
Частота кадров : 25,000 кадров/сек
Цветовое пространство : YUV
Субдискретизация насыщенности : 4:2:0
Битовая глубина : 8 бит
Тип развёртки : MBAFF
Бит/(Пиксели*Кадры) : 0.119
Размер потока : 2,54 Гбайт (90%)
Основные цвета : BT.709
Характеристики трансфера : BT.709
Коэффициенты матрицы : BT.709

Аудио #1
Идентификатор : 4352 (0x1100)
Идентификатор меню : 1 (0x1)
Формат : AC-3
Формат/Информация : Audio Coding 3
Расширение режима : CM (complete main)
Параметр Endianness формата : Big
Идентификатор кодека : 129
Продолжительность : 58 м.
Вид битрейта : Постоянный
Битрейт : 192 Кбит/сек
Каналы : 2 канала
Расположение каналов : Front: L R
Частота : 48,0 КГц
Битовая глубина : 16 бит
Метод сжатия : С потерями
Размер потока : 80,6 Мбайт (3%)
Язык : Russian

Аудио #2
Идентификатор : 4353 (0x1101)
Идентификатор меню : 1 (0x1)
Формат : AC-3
Формат/Информация : Audio Coding 3
Расширение режима : CM (complete main)
Параметр Endianness формата : Big
Идентификатор кодека : 129
Продолжительность : 58 м.
Вид битрейта : Постоянный
Битрейт : 192 Кбит/сек
Каналы : 2 канала
Расположение каналов : Front: L R
Частота : 48,0 КГц
Битовая глубина : 16 бит
Метод сжатия : С потерями
Размер потока : 80,6 Мбайт (3%)
Язык : English


История британской науки скачать торрент


pb.wtf



Скачать История британской науки через торрент https://pic.kartinco.top/images/8/19nsh.jpg Скачать фильм История британской науки через торрент бесплантно в хорошем качестве Описание: Профессор Брайан Кокс проведет зрителей сквозь 350 лет британской науки, чтобы показать что такое наука, что за люди ее ... 10 10 2
Торрент: Зарегистрирован [2014-12-23 10:22] · скачан: 8 раз
Статус: √ проверено
Размер: 8.09 GB
Как cкачать? Как скачать История британской науки через торрент | UTorrent

28-11-2019 20:33  

Отключить всю рекламу на сайте

    Дорогой пользователь! Огромная просьба, поблагодарите релизера, оцените раздачу и оставьте свои комментарий, если Вы скачали История британской науки через торрент бесплатно! Внесите свою лепту в развитие PiratBit!
    Комментировать посты могут только пользователи прошедшие не сложную регистрацию
    Показать сообщения:    

    История британской науки через торрент
    Скачать бесплатно История британской науки
    История британской науки скачать торрент
    История британской науки смотреть онлайн
    Cкачать фильм История британской науки бесплатно
    История британской науки скачать торрент в хорошем качестве
    История британской науки смотреть онлайн бесплатно в хорошем качестве


    Вы не можете начинать темы
    Вы не можете отвечать на сообщения
    Вы не можете редактировать свои сообщения
    Вы не можете удалять свои сообщения
    Вы не можете голосовать в опросах
    Вы не можете прикреплять файлы к сообщениям
    Вы можете скачивать файлы