2 сезон

iTunes

MVO

1

2 сезон

iTunes

iTunes

1 сезон

RePack

30

Новинка

ВАЖНО

ИГРА 18+

pack

RePack

MK11
pack

Легкие деньги

RePack

jed

RePack

fifa19

RePack

RDR2

RePack

NEED FOR SPEED™ PAYBACK

4 сезон

9 сезон

Бесстыжие 9 сезон

Все сериалы

все сериалы на PB.wtf

RePack

FAR CRY 5

Anonymous, добрый день, мы не успеваем собрать деньги на оплату серверов за декабрь и январь, помогите нам пожалуйста в это трудное время. В качестве благодарности мы отключим Вам всю рекламу на сайте (укажите свой ник в строку Ваше имя)!

×
  
Magnet ссылка

Коммандос / Commando (Марк Л. Лестер / Mark L. Lester) [1985, США, боевик, триллер, BDRip 1080p / 60 FPS, Профессиональный многоголосый] pb.wtf

Коммандос через торрент pb.wtf

Размер: 10.18 GB | Добавлен: 6 лет назад | Торрент скачан:212 раз
Скачать  

23-12-2014 12:12 Коммандос Скачать торрент  

Коммандос / Commando«Somewhere... somehow... someone's going to pay!»



Год выпуска: 1985
Страна: США
Жанр: боевик, триллер
Продолжительность: 01:30:14
Перевод: Профессиональный многоголосый
Субтитры:русские (Полные), английские (Полные)
Режиссер:Марк Л. Лестер / Mark L. Lester
В ролях:

Арнольд Шварценеггер (John Matrix), Рей Дон Чонг (Cindy), Дэн Хедайя (Arius), Вернон Уэллс (Bennett), Джеймс Олсон (Major General Franklin Kirby), Дэвид Патрик Келли (Sully), Алисса Милано (Jenny Matrix), Билл Дьюк (Cooke), Дрю Снайдер (Lawson), Шэрон Уайатт (Leslie), Майкл ДеЛано (Forrestal), Боб Майнор (Jackson)
Описание:
Бывший командир спецотряда, участвовавшего в секретных операциях на Ближнем Востоке, СССР и Центральной Америке, полковник в отставке Джон Матрикс, под другим именем, живёт в большом доме, вдали от города, вместе со своей одиннадцатилетней дочерью Дженни, пока её не похищает бывший товарищ Джона...

Автор рипа:Tiberiumsun69
Качество: BDRip 1080p / 60 FPS
Формат: MKV
Видео кодек: AVC
Аудио кодек:AC3
Видео: 1920x1040 (16:9), 14000 kbps, 59,940 fps
Аудио №1: русский/ 5.1/ 48 kHz/ 640 kbps/ AC3/ |Многоголосый, закадровый ОРТ|
Аудио №2: русский/ 2.0/ 48 kHz/ 192 kbps/ AC3/ |Многоголосый, закадровый R5|
Аудио №3: русский/ 5.1/ 48 kHz/ 640 kbps/ AC3/ |Многоголосый, закадровый Киномания|
Аудио №4: английский/ 5.1/ 48 kHz/ 640 kbps/ AC3
Навигация по главам: есть


Код:

General
Unique ID                   : 236750160837378266361078106483281903419 (0xB21C6C2307C260B8A3D79AD566F03F3B)
Complete name               : A:\1080p 60fps\Командос 1080p 60fps.mkv
Format                      : Matroska
Format version              : Version 4 / Version 2
File size                   : 10.2 GiB
Duration                    : 1h 30mn
Overall bit rate            : 16.1 Mbps
Movie name                  : R.G. HD-Films by Tiberiumsun69 60fps
Encoded date                : UTC 2014-12-25 07:05:20
Writing application         : mkvmerge v7.4.0 ('Circles') 64bit built on Dec 12 2014 12:19:56
Writing library             : libebml v1.3.0 + libmatroska v1.4.1
Attachements                : Cover.png

Video
ID                          : 1
Format                      : AVC
Format/Info                 : Advanced Video Codec
Format profile              : High@L4.1
Format settings, CABAC      : Yes
Format settings, ReFrames   : 4 frames
Codec ID                    : V_MPEG4/ISO/AVC
Duration                    : 1h 30mn
Bit rate                    : 13.7 Mbps
Width                       : 1 920 pixels
Height                      : 1 040 pixels
Display aspect ratio        : 1.85:1
Frame rate mode             : Constant
Frame rate                  : 60.000 fps
Original frame rate         : 59.940 fps
Color space                 : YUV
Chroma subsampling          : 4:2:0
Bit depth                   : 8 bits
Scan type                   : Progressive
Bits/(Pixel*Frame)          : 0.114
Stream size                 : 8.64 GiB (85%)
Title                       : R.G. HD-Films by Tiberiumsun69 60fps
Language                    : English
Default                     : Yes
Forced                      : No

Audio #1
ID                          : 2
Format                      : AC-3
Format/Info                 : Audio Coding 3
Mode extension              : CM (complete main)
Format settings, Endianness : Big
Codec ID                    : A_AC3
Duration                    : 1h 30mn
Bit rate mode               : Constant
Bit rate                    : 640 Kbps
Channel(s)                  : 6 channels
Channel positions           : Front: L C R, Side: L R, LFE
Sampling rate               : 48.0 KHz
Bit depth                   : 16 bits
Compression mode            : Lossy
Delay relative to video     : 14ms
Stream size                 : 413 MiB (4%)
Title                       : Многоголосый, закадровый ОРТ
Language                    : Russian
Default                     : Yes
Forced                      : No

Audio #2
ID                          : 3
Format                      : AC-3
Format/Info                 : Audio Coding 3
Mode extension              : CM (complete main)
Format settings, Endianness : Big
Codec ID                    : A_AC3
Duration                    : 1h 30mn
Bit rate mode               : Constant
Bit rate                    : 192 Kbps
Channel(s)                  : 2 channels
Channel positions           : Front: L R
Sampling rate               : 48.0 KHz
Bit depth                   : 16 bits
Compression mode            : Lossy
Delay relative to video     : 14ms
Stream size                 : 124 MiB (1%)
Title                       : Многоголосый, закадровый R5
Language                    : Russian
Default                     : No
Forced                      : No

Audio #3
ID                          : 4
Format                      : AC-3
Format/Info                 : Audio Coding 3
Mode extension              : CM (complete main)
Format settings, Endianness : Big
Codec ID                    : A_AC3
Duration                    : 1h 30mn
Bit rate mode               : Constant
Bit rate                    : 640 Kbps
Channel(s)                  : 6 channels
Channel positions           : Front: L C R, Side: L R, LFE
Sampling rate               : 48.0 KHz
Bit depth                   : 16 bits
Compression mode            : Lossy
Delay relative to video     : 14ms
Stream size                 : 413 MiB (4%)
Title                       : Многоголосый, закадровый Киномания
Language                    : Russian
Default                     : No
Forced                      : No

Audio #4
ID                          : 5
Format                      : AC-3
Format/Info                 : Audio Coding 3
Mode extension              : CM (complete main)
Format settings, Endianness : Big
Codec ID                    : A_AC3
Duration                    : 1h 30mn
Bit rate mode               : Constant
Bit rate                    : 640 Kbps
Channel(s)                  : 6 channels
Channel positions           : Front: L C R, Side: L R, LFE
Sampling rate               : 48.0 KHz
Bit depth                   : 16 bits
Compression mode            : Lossy
Delay relative to video     : 14ms
Stream size                 : 413 MiB (4%)
Title                       : Оригинал
Language                    : English
Default                     : No
Forced                      : No

Text #1
ID                          : 6
Format                      : UTF-8
Codec ID                    : S_TEXT/UTF8
Codec ID/Info               : UTF-8 Plain Text
Title                       : Полные
Language                    : Russian
Default                     : No
Forced                      : No

Text #2
ID                          : 7
Format                      : UTF-8
Codec ID                    : S_TEXT/UTF8
Codec ID/Info               : UTF-8 Plain Text
Title                       : Полные
Language                    : English
Default                     : No
Forced                      : No

Menu
00:00:00.000                : en:Hit Men
00:04:12.842                : en:Main Titles
00:08:14.082                : en:Kirby Comes Calling
00:11:24.356                : en:Bushwhacked
00:16:33.707                : en:A Job For Matrix
00:19:14.784                : en:At the Airport
00:22:44.954                : en:Emergency Exit
00:26:40.273                : en:Tailing Sully
00:29:01.246                : en:Cindy's Car
00:32:12.772                : en:Panic at the Galleria
00:37:37.803                : en:Hot Pursuit
00:43:57.225                : en:Cooke
00:49:12.998                : en:Patria Enterprises
00:53:43.895                : en:Shopping Spree
00:56:30.353                : en:Jailbreak
00:59:12.515                : en:A Canoe With Wings
01:04:43.386                : en:Soft Landing
01:06:56.562                : en:Storming the Beach
01:10:19.972                : en:An Explosive Presence
01:12:50.624                : en:A Force of One
01:17:46.252                : en:Taking on Arius
01:19:46.204                : en:"Let's Party"
01:24:35.369                : en:A Better Offer
01:26:53.298                : en:End Titles

..::Скриншоты::..

Просьба к заливающим на другик сайты "Подписывайте пожалуйста автора рипа Tiberiumsun69"

© Оформление by Tiberiumsun69 Демонстрация 5-120 fps!!! Жмите
Авторская группа в ВК
pb.wtf



Скачать Коммандос через торрент http://pic.kartinco.top/images/6/stazu.jpg Скачать фильм Коммандос через торрент бесплантно в хорошем качестве Описание: Бывший командир спецотряда, участвовавшего в секретных операциях на Ближнем Востоке, СССР и Центральной Америке, полковник в ... 9.7 10 31
Info! Золотая раздача, скачанное не засчитывается.
Торрент: Зарегистрирован [2014-12-25 07:37] · скачан: 212 раз
Статус: √ проверено
Размер: 10.18 GB
Как cкачать? Как скачать Коммандос через торрент | UTorrent

% Раздел Тема Автор DL S | L
Фильмы [HD 720p, 1080p] (Хороший звук DUB, MVO) [ 10.14 GB ] Коммандос / Commando [1985 BDRip 720p] MVO DVO AVO msltel Скачать
1 | 0
Фильмы [HD 720p, 1080p] (Хороший звук DUB, MVO) [ 15.72 GB ] Коммандос / Commando [1985 BDRip 1080p] MVO DVO AVO msltel Скачать
1 | 0
Фильмы до 2000 г. [ 1.7 GB ] Коммандос / Commando [1985 BDRip] + [AVO] + [VO] killermax2013 Скачать
1 | 0
Фильмы [HD 720p, 1080p] (Хороший звук DUB, MVO) [ 7.76 GB ] Коммандос / Commando [1985 BDRip 1080p многоголосый закадровый + Оригинал Бумер Скачать
1 | 0
Фильмы до 2000 г. [ 1.45 GB ] Коммандос / Commando [1985 BDRip] MoNaZ Скачать
1 | 0
Фильмы (DVD фильмы) [ 4.31 GB ] Коммандос / Commando [1985 ... DVD5] amv77 Скачать
1 | 0


Последний раз редактировалось: Tiberiumsun69 (2018-02-07 09:45), всего редактировалось 3 раз(а)

28-11-2019 20:33  

Отключить всю рекламу на сайте

23-12-2014 14:40 Коммандос Скачать торрент  

Tiberiumsun69 Ну прям респект тебе!! Не перестаёшь удивлять, молодец. Может попозже скачаю для раздачи. Побольше бы таких как ты!pb.wtf



23-12-2014 14:41 Коммандос Скачать торрент  

И да Кстати всех с Наступающим господа!!!! :ng:pb.wtf



23-12-2014 15:03 Коммандос Скачать торрент  

stormscratcher писал(а):

Tiberiumsun69 Ну прям респект тебе!! Не перестаёшь удивлять, молодец. Может попозже скачаю для раздачи. Побольше бы таких как ты!

pb.wtf



23-12-2014 18:59 Коммандос Скачать торрент  

Классика! Ну что тут ещё сказать? =) Хорошо, что в сети есть люди которые не дают нам забыть о ней, а некоторые ещё и предлагают её переосмыслить с помощью новых технологий оцифровки изображения! Безоговорочный РЕСПЕКТ за данный рип! yespb.wtf



25-12-2014 07:46 Коммандос Скачать торрент  

Большое спасибо!!! Если не трудно запили пожалуйста еще Робин гуд, Человек паук старый, свадьба в малиновке, Пила, Полицейская академия, На игре и геймеры, Шаг вперед, Другой мир и фильмов каких нить с Джеки чаном... Буду очень благодарен...pb.wtf



04-10-2020 06:25 Коммандос Скачать торрент  

Блин ну стойте плз на раздачеpb.wtf



    Дорогой пользователь! Огромная просьба, поблагодарите релизера, оцените раздачу и оставьте свои комментарий, если Вы скачали Коммандос через торрент бесплатно! Внесите свою лепту в развитие PiratBit!
    Комментировать посты могут только пользователи прошедшие не сложную регистрацию
    Показать сообщения:    

    Коммандос через торрент
    Скачать бесплатно Коммандос
    Коммандос скачать торрент
    Коммандос смотреть онлайн
    Cкачать фильм Коммандос бесплатно
    Коммандос скачать торрент в хорошем качестве
    Коммандос смотреть онлайн бесплатно в хорошем качестве


    Вы не можете начинать темы
    Вы не можете отвечать на сообщения
    Вы не можете редактировать свои сообщения
    Вы не можете удалять свои сообщения
    Вы не можете голосовать в опросах
    Вы не можете прикреплять файлы к сообщениям
    Вы можете скачивать файлы