Ссылка на приватное зеркало всего за 1$. Внимание количество ограничено!!!

iTunes

1+1

iTunes

мы

WEB-DL

1

iTunes

Чернобыль

iTunes

Ральф против интернета

Лицензия

ПШазам

Лицензия

Оно 2

Лицензия

30
pack

Вам бонус

ВАЖНО

!!Акция!!

Alien_RageХит недели

RePack

Resident Evil 21

ИГРА 18+

pack

RePack

jed

!!Акция!!

Alien_Rage

RePack

fifa19

RePack

Assassins Creed: Odyssey

RePack

NEED FOR SPEED™ PAYBACK

3 сезон

9 сезон

Бесстыжие 9 сезон

Все сериалы

все сериалы на PB.wtf

RePack

FAR CRY 5
Ребята, катастрофически не хватает 1900р. для оплаты серверов за Октябрь (всвязи с блокировками трафик упал в 3 раза), 1-2р., выручайте.
  

Гольциус и Пеликанья компания / Goltzius and the Pelican Company (Питер Гринуэй) [2012 г., биография, история, BDRip 720p, Профессиональный многоголосый, Лицензия] pb.wtf

Гольциус и Пеликанья компания через торрент pb.wtf

Размер: 5.78 GB | Добавлен: 4 года 11 мес. назад | Торрент скачан:45 раз
Скачать  

23-12-2014 12:17 Гольциус и Пеликанья компания Скачать торрент  

Гольциус и Пеликанья компания / Goltzius and the Pelican Company
Год выпуска: 2012
Страна: Великобритания, Нидерланды, Франция, Хорватия
Жанр: биография, история
Продолжительность: 01:57:07
Перевод: Профессиональный многоголосый, Лицензия

Режиссер: Питер Гринуэй
Продюссер: Кеес Касандер, Майк Дауни, Катрин Дассэрт
Сценарий: Питер Гринуэй

Бюджет: $30 445
Премьера в мире: 30 сентября 2012

IMDB 6.80 (336)


В ролях: Ф. Мюррэй Абрахам, Винсент Риотта, Халина Рейн, Анне Луизе Хассинг, Франческо Де Вито, Флавио Паренти, Джулио Мария Беррути, Truus de Boer, Кейт Моран, Ларс Эйдингер

Описание: Зимой 1590 года в Кольмаре голландский типограф и гравёр Хендрик Гольциус обращается к маркизу Эльзасскому с просьбой о выделении средств на создание типографии, которая будет издавать иллюстрированные книги. Гольциус считает, что первые две книги, которые выйдут из-под печатного станка, следует преподнести Маркизу и его свите. Этими книгами должны стать иллюстрированное издание Ветхого Завета, содержащее шесть историй с эротическим содержанием, и иллюстрированное издание Метаморфоз Овидия, содержащее историю измен Юпитера.Чтобы ещё сильнее прельстить Маркиза, Гольциус и его типографские работники готовятся поставить перед свитой Маркиза серию спектаклей по этим эротическим рассказам. Маркиз, человек, известный широтой взглядов, гордящийся своей религиозной и культурной терпимостью, владелец большой библиотеки, с просвещённым интересом к книгам и новым технологиям печати, поддаётся искушению Гольциуса. В присутствии свидетелей Маркиз заявляет, что возместит производственные затраты Гольциуса и компании, при условии, что те будут держать его в состоянии распалённом и взволнованном.Гольциус и его Пеликанья компания печатных мастеров с их жёнами и любовницами из театрального мира приступают к работе...

Качество: BDRip 720p
Формат: MKV
Видео кодек: AVC
Аудио кодек: AC3
Видео: 5165 Кбит/с, 1280x688, 24,000 кадра/сек
Аудио#1: Русский (AC3, 6 ch, 384 Кбит/с) 48,0 КГц
Аудио#2: английский (DTS, 6 ch, 1510 Кбит/с) 48,0 КГц

Общее
Уникальный идентификатор : 193806446805081041095624055321179055757 (0x91CDC3910778B57CBFE9D9BAD9CDE68D)
Полное имя : C:\Users\Сергей\Downloads\Goltzius.2012.P.BDRip.720p.mkv
Формат : Matroska
Версия формата : Version 2
Размер файла : 5,78 Гбайт
Продолжительность : 1 ч. 57 м.
Общий поток : 7060 Кбит/сек
Дата кодирования : UTC 2014-12-21 12:02:55
Программа кодирования : mkvmerge v7.4.0 ('Circles') 64bit built on Dec 12 2014 12:19:56
Библиотека кодирования : libebml v1.3.0 + libmatroska v1.4.1
DURATION : 01:57:07.424000000
NUMBER_OF_FRAMES : 219607
NUMBER_OF_BYTES : 337316352
_STATISTICS_WRITING_APP : mkvmerge v7.4.0 ('Circles') 64bit built on Dec 12 2014 12:19:56
_STATISTICS_WRITING_DATE_UTC : 2014-12-21 12:02:55
_STATISTICS_TAGS : BPS DURATION NUMBER_OF_FRAMES NUMBER_OF_BYTES

Видео
Идентификатор : 1
Формат : AVC
Формат/Информация : Advanced Video Codec
Профиль формата : High@L4.1
Параметр CABAC формата : Да
Параметр ReFrames формата : 5 кадров
Идентификатор кодека : V_MPEG4/ISO/AVC
Продолжительность : 1 ч. 57 м.
Битрейт : 5165 Кбит/сек
Ширина : 1280 пикселей
Высота : 688 пикселей
Соотношение сторон : 1,85:1
Режим частоты кадров : Постоянный
Частота кадров : 24,000 кадра/сек
Цветовое пространство : YUV
Субдискретизация насыщенности : 4:2:0
Битовая глубина : 8 бит
Тип развёртки : Прогрессивная
Бит/(Пиксели*Кадры) : 0.244
Размер потока : 4,11 Гбайт (71%)
Библиотека кодирования : x264 core 142 r2491 24e4fed
Настройки программы : cabac=1 / ref=5 / deblock=1:-3:-3 / analyse=0x3:0x113 / me=umh / subme=8 / psy=1 / psy_rd=1.00:0.00 / mixed_ref=1 / me_range=16 / chroma_me=1 / trellis=1 / 8x8dct=1 / cqm=0 / deadzone=21,11 / fast_pskip=1 / chroma_qp_offset=-2 / threads=12 / lookahead_threads=2 / sliced_threads=0 / nr=0 / decimate=1 / interlaced=0 / bluray_compat=0 / constrained_intra=0 / bframes=3 / b_pyramid=2 / b_adapt=2 / b_bias=0 / direct=3 / weightb=1 / open_gop=0 / weightp=2 / keyint=240 / keyint_min=24 / scenecut=40 / intra_refresh=0 / rc_lookahead=50 / rc=2pass / mbtree=1 / bitrate=5165 / ratetol=1.0 / qcomp=0.60 / qpmin=0 / qpmax=69 / qpstep=4 / cplxblur=20.0 / qblur=0.5 / ip_ratio=1.40 / aq=1:1.00
Язык : English
Default : Да
Forced : Нет
DURATION : 01:57:07.417000000
NUMBER_OF_FRAMES : 168658
NUMBER_OF_BYTES : 4536690179
_STATISTICS_WRITING_APP : mkvmerge v7.4.0 ('Circles') 64bit built on Dec 12 2014 12:19:56
_STATISTICS_WRITING_DATE_UTC : 2014-12-21 12:02:55
_STATISTICS_TAGS : BPS DURATION NUMBER_OF_FRAMES NUMBER_OF_BYTES

Аудио #1
Идентификатор : 2
Формат : AC-3
Формат/Информация : Audio Coding 3
Расширение режима : CM (complete main)
Параметр Endianness формата : Big
Идентификатор кодека : A_AC3
Продолжительность : 1 ч. 57 м.
Вид битрейта : Постоянный
Битрейт : 384 Кбит/сек
Каналы : 6 каналов
Расположение каналов : Front: L C R, Side: L R, LFE
Частота : 48,0 КГц
Битовая глубина : 16 бит
Метод сжатия : С потерями
Размер потока : 322 Мбайт (5%)
Язык : Russian
Default : Да
Forced : Да

Аудио #2
Идентификатор : 3
Формат : DTS
Формат/Информация : Digital Theater Systems
Режим : 16
Параметр Endianness формата : Big
Идентификатор кодека : A_DTS
Продолжительность : 1 ч. 57 м.
Вид битрейта : Постоянный
Битрейт : 1509 Кбит/сек
Каналы : 6 каналов
Расположение каналов : Front: L C R, Side: L R, LFE
Частота : 48,0 КГц
Битовая глубина : 24 бит
Метод сжатия : С потерями
Размер потока : 1,23 Гбайт (21%)
Язык : English
Default : Нет
Forced : Нет

Текст
Идентификатор : 4
Формат : UTF-8
Идентификатор кодека : S_TEXT/UTF8
Идентификатор кодека/Информация : UTF-8 Plain Text
Язык : English
Default : Нет
Forced : Нет

Меню
00:00:00.000 : en:00:00:00.000
00:09:57.833 : en:00:09:57.833
00:19:25.458 : en:00:19:25.458
00:28:45.542 : en:00:28:45.542
00:37:57.292 : en:00:37:57.292
00:50:50.333 : en:00:50:50.333
01:01:04.417 : en:01:01:04.417
01:12:37.125 : en:01:12:37.125
01:25:49.083 : en:01:25:49.083
01:37:10.958 : en:01:37:10.958
01:45:31.458 : en:01:45:31.458
01:54:36.750 : en:01:54:36.750


Гольциус и Пеликанья компания скачать торрент


pb.wtf



Скачать Гольциус и Пеликанья компания через торрент http://i65.fastpic.ru/big/2014/1223/d5/47deefbd32c8970b24d6a54542e273d5.png Скачать фильм Гольциус и Пеликанья компания через торрент бесплантно в хорошем качестве Описание: Зимой 1590 года в Кольмаре голландский ограф и гравёр Хендрик Гольциус обращается к маркизу Эльзасскому с просьбой о выделении ... 10 10 4
Торрент: Зарегистрирован [2014-12-23 12:17] · скачан: 45 раз
Статус: √ проверено
Размер: 5.78 GB
Как cкачать? Как скачать Гольциус и Пеликанья компания через торрент | qTorrent

% Раздел Тема Автор DL S | L
Арт-хаус и авторское кино [ 1.46 GB ] Гольциус и Пеликанья компания / Goltzius and the Pelican Company [ 2012 Нидерланды Хорватия биография история DVDRip ] MVO - Ворон Скачать
1 | 0

28-11-2019 20:33  

Отключить всю рекламу на сайте

    Дорогой пользователь! Огромная просьба, поблагодарите релизера, оцените раздачу и оставьте свои комментарий, если Вы скачали Гольциус и Пеликанья компания через торрент бесплатно! Внесите свою лепту в развитие PiratBit!
    Комментировать посты могут только пользователи прошедшие не сложную регистрацию
    Показать сообщения:    

    Гольциус и Пеликанья компания через торрент
    Скачать бесплатно Гольциус и Пеликанья компания
    Гольциус и Пеликанья компания скачать торрент
    Гольциус и Пеликанья компания смотреть онлайн
    Cкачать фильм Гольциус и Пеликанья компания бесплатно
    Гольциус и Пеликанья компания скачать торрент в хорошем качестве
    Гольциус и Пеликанья компания смотреть онлайн бесплатно в хорошем качестве


    Вы не можете начинать темы
    Вы не можете отвечать на сообщения
    Вы не можете редактировать свои сообщения
    Вы не можете удалять свои сообщения
    Вы не можете голосовать в опросах
    Вы не можете прикреплять файлы к сообщениям
    Вы можете скачивать файлы