Ссылка на приватное зеркало всего за 1$. Внимание количество ограничено!!!

OK

1+1

iTunes

мы

OK

1

WEB-DLRip

Джокер

Пифагор

Ведьмак / The Witcher сериал

Лицензия

ПШазам

ОК

Оно 2

iTunes

30
pack

Вам бонус

ВАЖНО

!!Акция!!

Alien_RageХит недели

RePack

Resident Evil 21

ИГРА 18+

pack

RePack

jed

RePack

fifa19

RePack

Assassins Creed: Odyssey

RePack

NEED FOR SPEED™ PAYBACK

4 сезон

9 сезон

Бесстыжие 9 сезон

Все сериалы

все сериалы на PB.wtf

RePack

FAR CRY 5
  

Неделя за один день с Рэйчел Рэй / Rachel Ray's week in a day / Сезоны 4 - 5 / 15 выпусков из 15 (Видеоурок) [2012, ТВ-шоу, кулинария, SATRip] VO pb.wtf

Неделя за один день с Рэйчел Рэй через торрент pb.wtf

Размер: 7.28 GB | Добавлен: 5 лет 1 мес. назад | Торрент скачан:5 раз
Скачать  

23-12-2014 13:41 Неделя за один день с Рэйчел Рэй Скачать торрент  

Неделя за один день с Рэйчел Рэй / Rachel Ray's week in a day
Год выпуска: 2012
Страна: США
Жанр: ТВ-шоу, кулинария
Продолжительность: ~ 00:40:00
Перевод: Профессиональный (одноголосый)

Описание: Рэйчел Рэй — женщина, добившаяся невероятных успехов на кулинарном поприще, а все потому, что устраивала кулинарные шоу и писала о еде для тех, кто... не любит готовить. Ее знаменитая концепция "еда за 30 минут" заставила подойти к плите не только тех, у кого вечно не хватает времени, но и безнадежных лентяев и неумех.

Качество: SATRip
Формат: AVI
Видео кодек: XviD
Аудио кодек: MP3
Видео: 704x400 (16:9), 25.000 fps, 1 600 Kbps (0.227 bit/pixel)
Аудио#1: 48.0 KHz, 2 ch, 128 Kbps, CBR
скриншот   скриншот   скриншот   скриншот   скриншот   скриншот   скриншот   скриншот  
Общее
Полное имя : H:\Неделя за один день с Рэйчел Рэй. сезоны 4 - 5\Rachel Ray's week in a day.seazon.2-3_Tarjaa\Rachel Ray's week in a day.seazon.2_Tarjaa\Rachel Ray's week in a day.seazon.2.v.01.XviD.SATRip_Tarjaa.avi
Формат : AVI
Формат/Информация : Audio Video Interleave
Размер файла : 500 Мбайт
Продолжительность : 40 м.
Общий поток : 1738 Кбит/сек
Программа кодирования : VirtualDubMod 1.5.10.3 | www.virtualdub-fr.org || (build 2550/release)
Библиотека кодирования : VirtualDubMod build 2550/release

Видео
Идентификатор : 0
Формат : MPEG-4 Visual
Профиль формата : Advanced Simple@L5
Параметр BVOP формата : 1
Параметр QPel формата : Нет
Параметр GMC формата : Без точки перехода
Параметр матрицы формата : Default (H.263)
Идентификатор кодека : XVID
Идентификатор кодека/Подсказка : XviD
Продолжительность : 40 м.
Битрейт : 1600 Кбит/сек
Ширина : 704 пикселя
Высота : 400 пикселей
Соотношение сторон : 16:9
Частота кадров : 25,000 кадров/сек
Цветовое пространство : YUV
Субдискретизация насыщенности : 4:2:0
Битовая глубина : 8 бит
Тип развёртки : Прогрессивная
Метод сжатия : С потерями
Бит/(Пиксели*Кадры) : 0.227
Размер потока : 460 Мбайт (92%)
Библиотека кодирования : XviD 1.2.1 (UTC 2008-12-04)

Аудио
Идентификатор : 1
Формат : MPEG Audio
Версия формата : Version 1
Профиль формата : Layer 3
Идентификатор кодека : 55
Идентификатор кодека/Подсказка : MP3
Продолжительность : 40 м.
Вид битрейта : Постоянный
Битрейт : 128 Кбит/сек
Каналы : 2 канала
Частота : 48,0 КГц
Метод сжатия : С потерями
Размер потока : 36,8 Мбайт (7%)
Выравнивание : Соединение по промежуткам
Продолжительность промежутка : 40 мс. (1,00 видеокадр)
Время предзагрузки промежутка : 504 мс.
Библиотека кодирования : LAME3.98r
Настройки программы : -m s -V 4 -q 2 -lowpass 17 -b 128
pb.wtf



Скачать Неделя за один день с Рэйчел Рэй через торрент http://pic.kartinco.top/images/8/1erpc.jpg Скачать фильм Неделя за один день с Рэйчел Рэй через торрент бесплантно в хорошем качестве Описание: Рэйчел Рэй — женщина, добившаяся невероятных успехов на кулинарном поприще, а все потому, что устраивала кулинарные шоу и писала ... 10 10 1
Торрент: Зарегистрирован [2014-12-23 13:41] · скачан: 5 раз
Статус: √ проверено
Размер: 7.28 GB
Как cкачать? Как скачать Неделя за один день с Рэйчел Рэй через торрент | qTorrent

28-11-2019 20:33  

Отключить всю рекламу на сайте

    Дорогой пользователь! Огромная просьба, поблагодарите релизера, оцените раздачу и оставьте свои комментарий, если Вы скачали Неделя за один день с Рэйчел Рэй через торрент бесплатно! Внесите свою лепту в развитие PiratBit!
    Комментировать посты могут только пользователи прошедшие не сложную регистрацию
    Показать сообщения:    

    Неделя за один день с Рэйчел Рэй через торрент
    Скачать бесплатно Неделя за один день с Рэйчел Рэй
    Неделя за один день с Рэйчел Рэй скачать торрент
    Неделя за один день с Рэйчел Рэй смотреть онлайн
    Cкачать фильм Неделя за один день с Рэйчел Рэй бесплатно
    Неделя за один день с Рэйчел Рэй скачать торрент в хорошем качестве
    Неделя за один день с Рэйчел Рэй смотреть онлайн бесплатно в хорошем качестве


    Вы не можете начинать темы
    Вы не можете отвечать на сообщения
    Вы не можете редактировать свои сообщения
    Вы не можете удалять свои сообщения
    Вы не можете голосовать в опросах
    Вы не можете прикреплять файлы к сообщениям
    Вы можете скачивать файлы