Ссылка на приватное зеркало нашего сайта всего за 1$. Внимание количество ограничено!!!

2 сезон

iTunes

1 сезон

1

2 сезон

2 сезон

iTunes

1 сезон

RePack

30

Ultimate

ВАЖНО

ИГРА 18+

pack

RePack

MK11
pack

Забери бонус

RePack

jed

!!Акция!!

Alien_Rage

RePack

fifa19

RePack

Assassins Creed: Odyssey

RePack

NEED FOR SPEED™ PAYBACK

4 сезон

9 сезон

Бесстыжие 9 сезон

Все сериалы

все сериалы на PB.wtf

RePack

FAR CRY 5
  

Прямо в сердце / Kill Dil (Шаад Али) [2014 г., боевик, триллер, драма, мелодрама, криминал, BDRip 1080p, Любительский двухголосый] pb.wtf

Прямо в сердце через торрент pb.wtf

Размер: 7.84 GB | Добавлен: 5 лет 11 мес. назад | Торрент скачан:20 раз
Скачать  

23-12-2014 15:12 Прямо в сердце Скачать торрент  

Прямо в сердце / Kill Dil
Год выпуска: 2014
Страна: Индия, Yash Raj Films
Жанр: боевик, триллер, драма, мелодрама, криминал
Продолжительность: 01:57:54
Перевод: Любительский двухголосый den904&DeadSno
Перевод и редакция: Honey&Haseena
Субтитры: Русские (на песни)

Режиссер: Шаад Али
Продюссер: Адитья Чопра, Санджай Шивалкар, Аших Сингх
Сценарий: Нитеш Тивари, Shreyas Jain, Никхил Мехротра

Премьера в мире: 13 ноября 2014

IMDB 5.20 (860)


В ролях: Ранвир Сингх, Али Зафар, Паринити Чопра, Говинда, Шаад Али, Сукхвиндер Сингх, Роки Верма

Описание: Краткое описание: Дев и Туту не знают своего происхождения. Их вырастил местный главарь мафии Бхайяджи. Он сделал из них орудие убийства. Выполняя очередное задание, Дев встречает красавицу Дишу и без памяти влюбляется в неё. Он решает бросить свою жалкую жизнь бандита и начать жизнь честного человека. Но банда главаря мафии не желает его так легко отпускать. Они начинают преследовать парня по пятам, в результате чего вмешивается Туту…. (c) Honey...

Качество: BDRip 1080p
Формат: MKV
Видео кодек: AVC
Аудио кодек: DTS
Видео: MPEG-4 AVC, 8000 Кбит/с, 1920x816, 23,976 fps
Аудио#1: DTS, 6 ch, 1510 Кбит/с/ 48 kHz

Video
ID : 1
Format : AVC
Format/Info : Advanced Video Codec
Format profile : High@L4.1
Format settings, CABAC : Yes
Format settings, ReFrames : 5 frames
Codec ID : V_MPEG4/ISO/AVC
Duration : 1h 58mn
Bit rate : 8 000 Kbps
Width : 1 920 pixels
Height : 816 pixels
Display aspect ratio : 2.35:1
Frame rate mode : Constant
Frame rate : 24.000 fps
Color space : YUV
Chroma subsampling : 4:2:0
Bit depth : 8 bits
Scan type : Progressive
Bits/(Pixel*Frame) : 0.213
Stream size : 6.44 GiB (82%)
Title : Desi HD
Writing library : x264 core 130 r2273 b3065e6
Encoding settings : cabac=1 / ref=5 / deblock=1:-1:-1 / analyse=0x3:0x133 / me=umh / subme=9 / psy=1 / psy_rd=1.00:0.15 / mixed_ref=1 / me_range=16 / chroma_me=1 / trellis=2 / 8x8dct=1 / cqm=0 / deadzone=21,11 / fast_pskip=0 / chroma_qp_offset=-3 / threads=18 / lookahead_threads=1 / sliced_threads=0 / nr=0 / decimate=1 / interlaced=0 / bluray_compat=0 / constrained_intra=0 / bframes=3 / b_pyramid=2 / b_adapt=2 / b_bias=0 / direct=3 / weightb=1 / open_gop=0 / weightp=2 / keyint=240 / keyint_min=24 / scenecut=40 / intra_refresh=0 / rc_lookahead=60 / rc=2pass / mbtree=1 / bitrate=8000 / ratetol=1.0 / qcomp=0.60 / qpmin=0 / qpmax=69 / qpstep=4 / cplxblur=20.0 / qblur=0.5 / vbv_maxrate=62500 / vbv_bufsize=78125 / nal_hrd=none / ip_ratio=1.40 / aq=1:1.00
Language : English
Default : Yes
Forced : No
Color primaries : BT.709
Transfer characteristics : BT.709
Matrix coefficients : BT.709

Audio
ID : 3
Format : DTS
Format/Info : Digital Theater Systems
Mode : 16
Format settings, Endianness : Big
Codec ID : A_DTS
Duration : 1h 58mn
Bit rate mode : Constant
Bit rate : 1 510 Kbps
Channel(s) : 6 channels
Channel positions : Front: L C R, Side: L R, LFE
Sampling rate : 48.0 KHz
Bit depth : 24 bits
Compression mode : Lossy
Stream size : 1.25 GiB (16%)
Default : Yes
Forced : No

Text
ID : 2
Format : UTF-8
Codec ID : S_TEXT/UTF8
Codec ID/Info : UTF-8 Plain Text
Default : Yes
Forced : No

Menu
00:00:00.000 : en:Chapter 1
00:06:32.000 : en:Chapter 2
00:12:07.625 : en:Chapter 3
00:14:13.791 : en:Chapter 4
00:27:32.875 : en:Chapter 5
00:29:57.750 : en:Chapter 6
00:38:48.666 : en:Chapter 7
00:41:52.708 : en:Chapter 8
00:52:15.041 : en:Chapter 9
00:57:16.166 : en:Chapter 10
01:01:38.375 : en:Chapter 11
01:10:10.416 : en:Chapter 12
01:13:31.250 : en:Chapter 13
01:15:56.750 : en:Chapter 14
01:19:43.791 : en:Chapter 15
01:20:24.625 : en:Chapter 16
01:29:22.666 : en:Chapter 17
01:32:41.208 : en:Chapter 18
01:36:18.208 : en:Chapter 19
01:46:19.375 : en:Chapter 20
01:51:54.916 : en:Chapter 21
01:53:46.791 : en:Chapter 22


Kill Dil скачать торрент


pb.wtf



Скачать Прямо в сердце через торрент http://i67.fastpic.ru/big/2014/1223/03/a8b544144990a44f81b562329d0a0f03.png Скачать фильм Прямо в сердце через торрент бесплантно в хорошем качестве Описание: Краткое описание: Дев и Туту не знают своего происхождения. Их вырастил местный главарь мафии Бхайяджи. Он сделал из них орудие ... 7.8 10 4
Торрент: Зарегистрирован [2014-12-23 15:12] · скачан: 20 раз
Статус: √ проверено
Размер: 7.84 GB
Как cкачать? Как скачать Прямо в сердце через торрент | qTorrent

28-11-2019 20:33  

Отключить всю рекламу на сайте

23-12-2014 19:06 Прямо в сердце Скачать торрент  

3-ий чувак сверху на постере похож на Билана sarcasticpb.wtf



    Дорогой пользователь! Огромная просьба, поблагодарите релизера, оцените раздачу и оставьте свои комментарий, если Вы скачали Прямо в сердце через торрент бесплатно! Внесите свою лепту в развитие PiratBit!
    Комментировать посты могут только пользователи прошедшие не сложную регистрацию
    Показать сообщения:    

    Прямо в сердце через торрент
    Скачать бесплатно Прямо в сердце
    Прямо в сердце скачать торрент
    Прямо в сердце смотреть онлайн
    Cкачать фильм Прямо в сердце бесплатно
    Прямо в сердце скачать торрент в хорошем качестве
    Прямо в сердце смотреть онлайн бесплатно в хорошем качестве


    Вы не можете начинать темы
    Вы не можете отвечать на сообщения
    Вы не можете редактировать свои сообщения
    Вы не можете удалять свои сообщения
    Вы не можете голосовать в опросах
    Вы не можете прикреплять файлы к сообщениям
    Вы можете скачивать файлы