1 сезон

1 сезон

iTunes

1

КиноПоиск HD

Кинопоиск HD

iTunes

13

1 сезон

RePack

30

Новинка

ВАЖНО

ИГРА 18+

pack

RePack

MK11
pack

Легкие деньги

RePack

jed

RePack

fifa19

RePack

RDR2

RePack

NEED FOR SPEED™ PAYBACK

4 сезон

9 сезон

Бесстыжие 9 сезон

Все сериалы

все сериалы на PB.wtf

RePack

FAR CRY 5
  
Magnet ссылка

Эйфель. Правдивая история. Хроники Эйфелевой башни / La légende vraie de la tour Eiffel / 1-2 Cерии (Саймон Брук / Simon Brook) [2005, Франция, Бельгия, Швейцария, драма, HDTV 1080i] MVO (Кинопоказ) pb.wtf

Эйфель. Правдивая история. Хроники Эйфелевой башни через торрент pb.wtf

Размер: 5.31 GB | Добавлен: 6 лет 3 мес. назад | Торрент скачан:27 раз
Скачать  

23-12-2014 18:52 Эйфель. Правдивая история. Хроники Эйфелевой башни Скачать торрент  

Эйфель. Правдивая история.Хроники Эйфелевой башни / La légende vraie de la tour Eiffel
Год выпуска: 2005
Страна: Франция, Бельгия, Швейцария
Жанр: история, драма
Продолжительность: 00:47:14 + 00:50:06
Перевод: Профессиональный многоголосый (Кинопоказ)

Режиссер: Саймон Брук / Simon Brook



В ролях: Жак Франц, Николас Вод, Бруно Эспозито, Никки Марбо, Джули Марбеф, Жан-Пьер Беккер, Марк Самуэль, Аннелиз Эм, Эммануэль Авена, Alexandre Zloto

Описание: Этот шедевр индустрии стал символом прогресса XIX века. Совершенство творений Густава Эйфеля снискало ему заказы по всей Европе. Великолепные сооружения из стекла и железа, эффектные конструкции были лишь преамбулой к созданию необыкновенного трехсотметрового монумента, который должен был стать чуть ли не более знаменитым, чем египетские пирамиды или Великая китайская стена.

Качество: HDTV 1080i
Формат: TS
Видео кодек: AVC
Аудио кодек: MPEG Audio
Видео: 1920x1080 (16:9), 25.000 fps, 6 346 Kbps (0.122 bit/pixel)
Аудио#1: 48.0 KHz, 2 ch, 192 Kbps, CBR (Russian)
скриншот   скриншот   скриншот   скриншот   скриншот   скриншот  

Общее
Идентификатор : 1 (0x1)
Полное имя : H:\Хроники Эйфелевой башни\Эйфель. Правдивая история. Хроники Эйфелевой башни.(1,2 серия)\Эйфель. Правдивая история. Хроники Эйфелевой башни (01 серия).ts
Формат : MPEG-TS
Размер файла : 2,27 Гбайт
Продолжительность : 47 м.
Режим общего битрейта : Переменный
Общий поток : 6880 Кбит/сек
Максимальный общий битрейт : 35,5 Мбит/сек

Видео
Идентификатор : 4113 (0x1011)
Идентификатор меню : 1 (0x1)
Формат : AVC
Формат/Информация : Advanced Video Codec
Профиль формата : Main@L4.0
Параметр CABAC формата : Да
Параметр ReFrames формата : 3 кадра
Параметр GOP формата : M=4, N=32
Идентификатор кодека : 27
Продолжительность : 47 м.
Вид битрейта : Переменный
Битрейт : 6346 Кбит/сек
Максимальный битрейт : 40,0 Мбит/сек
Ширина : 1920 пикселей
Высота : 1080 пикселей
Соотношение сторон : 16:9
Частота кадров : 25,000 кадров/сек
Стандарт вещания : Component
Цветовое пространство : YUV
Субдискретизация насыщенности : 4:2:0
Битовая глубина : 8 бит
Тип развёртки : Чересстрочная
Порядок развёртки : Верхнее поле первое
Бит/(Пиксели*Кадры) : 0.122
Размер потока : 2,09 Гбайт (92%)
Основные цвета : BT.709
Характеристики трансфера : BT.709
Коэффициенты матрицы : BT.709

Аудио
Идентификатор : 4352 (0x1100)
Идентификатор меню : 1 (0x1)
Формат : MPEG Audio
Версия формата : Version 1
Профиль формата : Layer 2
Идентификатор кодека : 4
Продолжительность : 47 м.
Вид битрейта : Постоянный
Битрейт : 192 Кбит/сек
Каналы : 2 канала
Частота : 48,0 КГц
Метод сжатия : С потерями
Размер потока : 64,9 Мбайт (3%)
Язык : Russian


Хроники Эйфелевой башни скачать торрент


pb.wtf



Скачать Эйфель. Правдивая история. Хроники Эйфелевой башни через торрент https://pic.kartinco.top/images/8/in1uy.jpg Скачать фильм Эйфель. Правдивая история. Хроники Эйфелевой башни через торрент бесплантно в хорошем качестве Описание: Этот шедевр индустрии стал символом прогресса XIX века. Совершенство творений Густава Эйфеля снискало ему заказы по всей Европе. ... 10 10 2
Торрент: Зарегистрирован [2014-12-23 18:52] · скачан: 27 раз
Статус: √ проверено
Размер: 5.31 GB
Как cкачать? Как скачать Эйфель. Правдивая история. Хроники Эйфелевой башни через торрент | UTorrent

28-11-2019 20:33  

Отключить всю рекламу на сайте

    Дорогой пользователь! Огромная просьба, поблагодарите релизера, оцените раздачу и оставьте свои комментарий, если Вы скачали Эйфель. Правдивая история. Хроники Эйфелевой башни через торрент бесплатно! Внесите свою лепту в развитие PiratBit!
    Комментировать посты могут только пользователи прошедшие не сложную регистрацию
    Показать сообщения:    

    Эйфель. Правдивая история. Хроники Эйфелевой башни через торрент
    Скачать бесплатно Эйфель. Правдивая история. Хроники Эйфелевой башни
    Эйфель. Правдивая история. Хроники Эйфелевой башни скачать торрент
    Эйфель. Правдивая история. Хроники Эйфелевой башни смотреть онлайн
    Cкачать фильм Эйфель. Правдивая история. Хроники Эйфелевой башни бесплатно
    Эйфель. Правдивая история. Хроники Эйфелевой башни скачать торрент в хорошем качестве
    Эйфель. Правдивая история. Хроники Эйфелевой башни смотреть онлайн бесплатно в хорошем качестве


    Вы не можете начинать темы
    Вы не можете отвечать на сообщения
    Вы не можете редактировать свои сообщения
    Вы не можете удалять свои сообщения
    Вы не можете голосовать в опросах
    Вы не можете прикреплять файлы к сообщениям
    Вы можете скачивать файлы