2 сезон

iTunes

1 сезон

1

iTunes

iTunes

iTunes

1 сезон

RePack

30

ИГРА 18+

pack

ВАЖНО

!!Акция!!

Alien_RageХит недели

RePack

MK11
pack

Забери бонус

RePack

jed

!!Акция!!

Alien_Rage

RePack

fifa19

RePack

Assassins Creed: Odyssey

RePack

NEED FOR SPEED™ PAYBACK

4 сезон

9 сезон

Бесстыжие 9 сезон

Все сериалы

все сериалы на PB.wtf

RePack

FAR CRY 5
  

Умельцы / Сезон: 1 / Серии 1-16 из 16 (Всеволод Аравин) [2014, Россия, криминал, SATRip) pb.wtf

Умельцы через торрент pb.wtf

Раздают: 1 [ 0 KB/s ]
Размер: 8.52 GB | Добавлен: 5 лет 9 мес. назад | Торрент скачан:721 раз
Скачать  

24-12-2014 01:22 Умельцы Скачать торрент  

Умельцы


  • Год выпуска: 2014
  • Страна: Россия
  • Жанр: криминал
  • Продолжительность: 00:49:47 (Серия)
  • Перевод: Не требуется

  • Режиссер: Всеволод Аравин
  • В ролях:

    Сергей Маковецкий (Леонид Николаевич Купцов), Дмитрий Марьянов (Брюнет), Евгений Миллер (Дмитрий Борисович Петрухин), Алексей Паничев (Грибков), Анастасия Панина (Аллочка), Владимир Наджаров (Игорь Погрябняк), Ярослав Жалнин (Саша Матвеев), Павел Афонькин, Макс Бирюков (Глеб Асеев), Александр Сергеев (Малянов), Марина Орлова, Юрий Маслак (Пятов)

  • Описание:
    Два классных сыщика: следователь, майор Леонид Купцов и оперуполномоченный, капитан Дмитрий Петрухин вдруг оказались не у дел - обоих за излишнее рвение выгнали из уголовного розыска. Неожиданно работу им предлагает «Брюнет» - их бывший «клиент» с богатым бандитским прошлым...
  • Рейтинг:



  • Качество: SATRip
  • Формат: :AVI
  • Видео кодек: XviD
  • Аудио кодек: MP3
  • Видео: 720x400 (16:9), 1399 kbps, 25 fps, 0,194 bpp
  • Аудио: 2.0 / 48 kHz / 192 kbps /
  • Релиз от: GEKADOL

    Код:

    Внимание! Раздача ведётся путём добавления новых серий; при каждом добавлении создаётся новый торрент. Чтобы начать докачку новой серии, пользователям необходимо сделать следующее:
    (1) остановить скачивание,
    (2) удалить старый торрент у себя из клиента (старые серии удалять не надо),
    (3) скачать новый торрент и запустить его у себя в клиенте вместо старого, при этом указать клиенту путь в старую папку куда и должно происходить скачивание новых серий.
    Ваш клиент при этом должен произвести хеширование (проверку) старой папки (если не производит сам - помогите ему сделать это), и будет докачивать только те серии которых у вас ещё нет. Старые серии при этом не удаляются, а продолжают раздаваться!
    Eсли вы уже удалили старые серии, то предотвратить повторную закачку старых серий можно, отжав галочку в соответствующих местах при запуске нового торрента. По возможности, желательно не удалять старые серии как можно дольше чтобы релизёр не столько продолжал раздавать старые серии, а смог сконцентрироваться на новых.


    Код:

    General
    Complete name                            : I:\Умельцы (2014)\Умельцы.(03.seriya).2014.XviD.SATRip.by.simka.avi
    Format                                   : AVI
    Format/Info                              : Audio Video Interleave
    File size                                : 570 MiB
    Duration                                 : 49mn 47s
    Overall bit rate                         : 1 601 Kbps
    Writing application                      : VirtualDubModRus 1.5.10.2 (build 2542/release)
    Writing library                          : VirtualDubMod build 2542/release

    Video
    ID                                       : 0
    Format                                   : MPEG-4 Visual
    Format profile                           : Advanced Simple@L5
    Format settings, BVOP                    : 1
    Format settings, QPel                    : No
    Format settings, GMC                     : No warppoints
    Format settings, Matrix                  : Default (MPEG)
    Codec ID                                 : XVID
    Codec ID/Hint                            : XviD
    Duration                                 : 49mn 47s
    Bit rate                                 : 1 400 Kbps
    Width                                    : 720 pixels
    Height                                   : 400 pixels
    Display aspect ratio                     : 16:9
    Frame rate                               : 25.000 fps
    Color space                              : YUV
    Chroma subsampling                       : 4:2:0
    Bit depth                                : 8 bits
    Scan type                                : Progressive
    Compression mode                         : Lossy
    Bits/(Pixel*Frame)                       : 0.194
    Stream size                              : 499 MiB (87%)
    Writing library                          : XviD 1.2.1 (UTC 2008-12-04)

    Audio
    ID                                       : 1
    Format                                   : MPEG Audio
    Format version                           : Version 1
    Format profile                           : Layer 3
    Mode                                     : Joint stereo
    Mode extension                           : MS Stereo
    Codec ID                                 : 55
    Codec ID/Hint                            : MP3
    Duration                                 : 49mn 47s
    Bit rate mode                            : Constant
    Bit rate                                 : 192 Kbps
    Channel(s)                               : 2 channels
    Sampling rate                            : 48.0 KHz
    Compression mode                         : Lossy
    Stream size                              : 68.4 MiB (12%)
    Alignment                                : Aligned on interleaves
    Interleave, duration                     : 40 ms (1.00 video frame)
    Interleave, preload duration             : 504 ms
    Writing library                          : LAME3.99r
    Encoding settings                        : -m j -V 4 -q 2 -lowpass 18.6 -b 192


    Скриншоты:
    скриншот   скриншот   скриншот   скриншот   скриншот  
    скриншот  

    Раздача ведётся путём добавления новых серий. Добавлена 02 серия (02.01.2015).Просьба перекачать торрент файл.

    pb.wtf



  • Скачать Умельцы через торрент http://i67.fastpic.ru/big/2014/1224/30/f193b7f70efe3a8c406323ead90a3430.jpg Скачать фильм Умельцы через торрент бесплантно в хорошем качестве Описание: Два классных сыщика: следователь, майор Леонид Купцов и оперуполномоченный, капитан Дмитрий Петрухин вдруг оказались не у дел - ... 9.7 10 17
    Info! Золотая раздача, скачанное не засчитывается.
    Торрент: Зарегистрирован [2015-01-02 02:58] · скачан: 721 раз
    Статус: √ проверено
    Размер: 8.52 GB
    Как cкачать? Как скачать Умельцы через торрент | qTorrent

    % Раздел Тема Автор DL S | L
    Наши сериалы [ 23.7 GB ] Умельцы / Сезон: 1 / Серии: 1-16 из 16 [2014 WEB-DL 1080p] bober100 Скачать
    2 | 0

    28-11-2019 20:33  

    Отключить всю рекламу на сайте

      Дорогой пользователь! Огромная просьба, поблагодарите релизера, оцените раздачу и оставьте свои комментарий, если Вы скачали Умельцы через торрент бесплатно! Внесите свою лепту в развитие PiratBit!
      Комментировать посты могут только пользователи прошедшие не сложную регистрацию
      Показать сообщения:    

      Умельцы через торрент
      Скачать бесплатно Умельцы
      Умельцы скачать торрент
      Умельцы смотреть онлайн
      Cкачать фильм Умельцы бесплатно
      Умельцы скачать торрент в хорошем качестве
      Умельцы смотреть онлайн бесплатно в хорошем качестве


      Вы не можете начинать темы
      Вы не можете отвечать на сообщения
      Вы не можете редактировать свои сообщения
      Вы не можете удалять свои сообщения
      Вы не можете голосовать в опросах
      Вы не можете прикреплять файлы к сообщениям
      Вы можете скачивать файлы