Ссылка на приватное зеркало нашего сайта всего за 1$. Внимание количество ограничено!!!

2 сезон

iTunes

1 сезон

1

iTunes

iTunes

iTunes

1 сезон

RePack

30

ИГРА 18+

pack

ВАЖНО

!!Акция!!

Alien_RageХит недели

RePack

MK11
pack

Забери бонус

RePack

jed

!!Акция!!

Alien_Rage

RePack

fifa19

RePack

Assassins Creed: Odyssey

RePack

NEED FOR SPEED™ PAYBACK

4 сезон

9 сезон

Бесстыжие 9 сезон

Все сериалы

все сериалы на PB.wtf

RePack

FAR CRY 5
  

Дик Трэйси / Dick Tracy (Уоррен Битти) [1990, боевик, триллер, мелодрама, комедия, криминал, BDRip 1080p] DUB, 2 x MVO, AVO pb.wtf

Дик Трэйси через торрент pb.wtf

Размер: 13.89 GB | Добавлен: 5 лет 9 мес. назад | Торрент скачан:14 раз
Скачать  

24-12-2014 06:37 Дик Трэйси Скачать торрент  

Дик Трэйси / Dick Tracy

Год выпуска: 1990
Страна: США
Жанр: боевик, триллер, мелодрама, комедия, криминал
Продолжительность: 01:45:05
Перевод: дублированный, профессиональный многоголосый, авторский
Субтитры: русские, английские

Режиссёр: Уоррен Битти

В ролях: Мадонна, Уоррен Битти, Аль Пачино, Дастин Хоффман, Джеймс Каан, Чарлз Дернинг, Кэтрин О’Хара, Уильям Форсайт, Майкл Джей Поллард, Дик Ван Дайк, Чарли Корсмо, Сеймур Кэссел, Пол Сорвино, Гленн Хедли, Р. Дж. Армстронг, Мэнди Пэтинкин, Эстелл Парсонс

Описание: Чикаго. Тридцатые годы. В городе всем заправляет банда головорезов, которых никто не может остановить. Единственный, кому это под силу, — отважный сыщик Дик Трэйси. И он не отступит. Даже если на его пути оказывается главарь мафии. Но сердце бесстрашного героя может не устоять перед чарами соблазнительной красотки…



Качество: BDRip 1080p Сравнение с исходником
Формат: MKV
Видео кодек: H.264
Аудио кодек: AC3, DTS
Видео: 1920x1040, 14.4 Mbps, 23.976 кадра/с, 0.302 bpp
Аудио 1: русский, AC3, 256 kbps, 1 ch, 48 kHz [дублированный, СВ Дубль]
Аудио 2: русский, AC3, 640 kbps, 6 ch, 48 kHz [профессиональный многоголосый, Blu-Ray US]
Аудио 3: русский, AC3, 192 kbps, 2 ch, 48 kHz [профессиональный многоголосый, Домашний]
Аудио 4: русский, DTS, 1509 kbps, 6 ch, 48 kHz [авторский, Михаил Иванов]
Аудио 5: английский, DTS, 1509 kbps, 6 ch, 48 kHz [оригинал]

Имеются неименованные главы/чаптеры.
Оскар, 1991 год
Победитель (3):
Лучшие декорации
Лучший грим
Лучшая песня — «Sooner or Later (I Always Get My Man)»

Номинации (4):
Лучшая мужская роль второго плана (Аль Пачино)
Лучшая работа оператора
Лучшие костюмы
Лучший звук

Золотой глобус, 1991 год
Номинации (4):
Лучший фильм (комедия или мюзикл)
Лучшая мужская роль второго плана (Аль Пачино)
Лучшая песня — «Sooner or Later (I Always Get My Man)»
Лучшая песня — «What Can You Lose?»

Британская академия, 1991 год
Победитель (2):
Лучший грим
Лучшая работа художника-постановщика

Номинации (5):
Лучшая мужская роль второго плана (Аль Пачино)
Лучшие костюмы
Лучший звук
Лучший монтаж
Лучшие визуальные эффекты

Сатурн, 1991 год
Победитель (1):
Лучший грим

Номинации (6):
Лучший фэнтези-фильм
Лучший актер (Уоррен Битти)
Лучшая актриса (Мадонна)
Лучший молодой актер/актриса (Чарли Корсмо)
Лучший актер второго плана (Аль Пачино)
Лучшие костюмы
Общее
Уникальный идентификатор : 186046289729159420700866586337275387240 (0x8BF7364875C826A09D3A5F738B719D68)
Полное имя : D:VideoDik Trejsi.1990.BDRip.1080p.mkv
Формат : Matroska
Версия формата : Version 4 / Version 2
Размер файла : 13,9 Гбайт
Продолжительность : 1 ч. 45 м.
Общий поток : 18,9 Мбит/сек
Дата кодирования : UTC 2014-12-24 03:30:58
Программа кодирования : mkvmerge v7.4.0 ('Circles') 64bit built on Dec 12 2014 12:19:56
Библиотека кодирования : libebml v1.3.0 + libmatroska v1.4.1
_STATISTICS_WRITING_APP : mkvmerge v7.4.0 ('Circles') 64bit built on Dec 12 2014 12:19:56
_STATISTICS_WRITING_DATE_UTC : 2014-12-24 03:30:58
_STATISTICS_TAGS : BPS DURATION NUMBER_OF_FRAMES NUMBER_OF_BYTES
DURATION : 01:45:05.472000000
NUMBER_OF_FRAMES : 591138
NUMBER_OF_BYTES : 1189373080

Видео
Идентификатор : 1
Формат : AVC
Формат/Информация : Advanced Video Codec
Профиль формата : High@L4.1
Параметр CABAC формата : Да
Параметр ReFrames формата : 4 кадра
Идентификатор кодека : V_MPEG4/ISO/AVC
Продолжительность : 1 ч. 45 м.
Битрейт : 14,4 Мбит/сек
Ширина : 1920 пикселей
Высота : 1040 пикселей
Соотношение сторон : 1,85:1
Режим частоты кадров : Постоянный
Частота кадров : 23,976 кадра/сек
Цветовое пространство : YUV
Субдискретизация насыщенности : 4:2:0
Битовая глубина : 8 бит
Тип развёртки : Прогрессивная
Бит/(Пиксели*Кадры) : 0.302
Размер потока : 10,6 Гбайт (76%)
Заголовок : BDRip -- STarankov
Библиотека кодирования : x264 core 142 r2431 ac76440
Настройки программы : cabac=1 / ref=4 / deblock=1:-1:-1 / analyse=0x3:0x113 / me=umh / subme=10 / psy=1 / psy_rd=1.00:0.15 / mixed_ref=1 / me_range=32 / chroma_me=1 / trellis=2 / 8x8dct=1 / cqm=0 / deadzone=21,11 / fast_pskip=1 / chroma_qp_offset=-3 / threads=6 / lookahead_threads=1 / sliced_threads=0 / nr=0 / decimate=1 / interlaced=0 / bluray_compat=0 / constrained_intra=0 / bframes=8 / b_pyramid=2 / b_adapt=2 / b_bias=0 / direct=3 / weightb=1 / open_gop=0 / weightp=2 / keyint=230 / keyint_min=23 / scenecut=40 / intra_refresh=0 / rc_lookahead=40 / rc=crf / mbtree=0 / crf=19.5 / qcomp=0.60 / qpmin=0 / qpmax=69 / qpstep=4 / vbv_maxrate=40000 / vbv_bufsize=50000 / crf_max=0.0 / nal_hrd=none / filler=0 / ip_ratio=1.40 / pb_ratio=1.30 / aq=1:1.00
Язык : English
Default : Да
Forced : Нет
DURATION : 01:45:05.466000000
NUMBER_OF_FRAMES : 151180
NUMBER_OF_BYTES : 11679110835
_STATISTICS_WRITING_APP : mkvmerge v7.4.0 ('Circles') 64bit built on Dec 12 2014 12:19:56
_STATISTICS_WRITING_DATE_UTC : 2014-12-24 03:30:58
_STATISTICS_TAGS : BPS DURATION NUMBER_OF_FRAMES NUMBER_OF_BYTES

Аудио #1
Идентификатор : 2
Формат : AC-3
Формат/Информация : Audio Coding 3
Расширение режима : CM (complete main)
Параметр Endianness формата : Big
Идентификатор кодека : A_AC3
Продолжительность : 1 ч. 45 м.
Вид битрейта : Постоянный
Битрейт : 256 Кбит/сек
Каналы : 1 канал
Расположение каналов : Front: C
Частота : 48,0 КГц
Битовая глубина : 16 бит
Метод сжатия : С потерями
Размер потока : 192 Мбайт (1%)
Заголовок : DUB (СВ Дубль)
Язык : Russian
Default : Да
Forced : Нет

Аудио #2
Идентификатор : 3
Формат : AC-3
Формат/Информация : Audio Coding 3
Расширение режима : CM (complete main)
Параметр Endianness формата : Big
Идентификатор кодека : A_AC3
Продолжительность : 1 ч. 45 м.
Вид битрейта : Постоянный
Битрейт : 640 Кбит/сек
Каналы : 6 каналов
Расположение каналов : Front: L C R, Side: L R, LFE
Частота : 48,0 КГц
Битовая глубина : 16 бит
Метод сжатия : С потерями
Размер потока : 481 Мбайт (3%)
Заголовок : MVO (Blu-Ray US)
Язык : Russian
Default : Нет
Forced : Нет

Аудио #3
Идентификатор : 4
Формат : AC-3
Формат/Информация : Audio Coding 3
Расширение режима : CM (complete main)
Параметр Endianness формата : Big
Идентификатор кодека : A_AC3
Продолжительность : 1 ч. 45 м.
Вид битрейта : Постоянный
Битрейт : 192 Кбит/сек
Каналы : 2 канала
Расположение каналов : Front: L R
Частота : 48,0 КГц
Битовая глубина : 16 бит
Метод сжатия : С потерями
Размер потока : 144 Мбайт (1%)
Заголовок : MVO (Домашний)
Язык : Russian
Default : Нет
Forced : Нет

Аудио #4
Идентификатор : 5
Формат : DTS
Формат/Информация : Digital Theater Systems
Режим : 16
Параметр Endianness формата : Big
Идентификатор кодека : A_DTS
Продолжительность : 1 ч. 45 м.
Вид битрейта : Постоянный
Битрейт : 1509 Кбит/сек
Каналы : 6 каналов
Расположение каналов : Front: L C R, Side: L R, LFE
Частота : 48,0 КГц
Битовая глубина : 24 бит
Метод сжатия : С потерями
Размер потока : 1,11 Гбайт (8%)
Заголовок : AVO (Михаил Иванов)
Язык : Russian
Default : Нет
Forced : Нет

Аудио #5
Идентификатор : 6
Формат : DTS
Формат/Информация : Digital Theater Systems
Режим : 16
Параметр Endianness формата : Big
Идентификатор кодека : A_DTS
Продолжительность : 1 ч. 45 м.
Вид битрейта : Постоянный
Битрейт : 1509 Кбит/сек
Каналы : 6 каналов
Расположение каналов : Front: L C R, Side: L R, LFE
Частота : 48,0 КГц
Битовая глубина : 24 бит
Метод сжатия : С потерями
Размер потока : 1,11 Гбайт (8%)
Заголовок : Original
Язык : English
Default : Нет
Forced : Нет

Текст #1
Идентификатор : 7
Формат : UTF-8
Идентификатор кодека : S_TEXT/UTF8
Идентификатор кодека/Информация : UTF-8 Plain Text
Заголовок : русский
Язык : Russian
Default : Нет
Forced : Нет

Текст #2
Идентификатор : 8
Формат : UTF-8
Идентификатор кодека : S_TEXT/UTF8
Идентификатор кодека/Информация : UTF-8 Plain Text
Заголовок : английский
Default : Нет
Forced : Нет

Меню
00:00:00.000 : :Chapter 01
00:08:27.673 : :Chapter 02
00:14:21.735 : :Chapter 03
00:22:16.251 : :Chapter 04
00:32:04.255 : :Chapter 05
00:37:13.731 : :Chapter 06
00:49:57.369 : :Chapter 07
00:56:47.529 : :Chapter 08
01:06:30.528 : :Chapter 09
01:14:33.135 : :Chapter 10
01:26:06.035 : :Chapter 11
01:36:17.688 : :Chapter 12
pb.wtf



Скачать Дик Трэйси через торрент http://i65.fastpic.ru/big/2014/1223/8e/0234efbf72249fa51e6ff288f7c25a8e.jpg Скачать фильм Дик Трэйси через торрент бесплантно в хорошем качестве Описание: Чикаго. Тридцатые годы. В городе всем заправляет банда головорезов, которых никто не может остановить. Единственный, кому это под ... 5 10 1
Торрент: Зарегистрирован [2014-12-24 06:37] · скачан: 14 раз
Статус: √ проверено
Размер: 13.89 GB
Как cкачать? Как скачать Дик Трэйси через торрент | qTorrent

% Раздел Тема Автор DL S | L
Фильмы [HD 720p, 1080p] (Хороший звук DUB, MVO) [ 6.26 GB ] Дик Трэйси / Dick Tracy [1990 BDRip 720p] DUB 2 x MVO AVO msltel Скачать
1 | 0

28-11-2019 20:33  

Отключить всю рекламу на сайте

    Дорогой пользователь! Огромная просьба, поблагодарите релизера, оцените раздачу и оставьте свои комментарий, если Вы скачали Дик Трэйси через торрент бесплатно! Внесите свою лепту в развитие PiratBit!
    Комментировать посты могут только пользователи прошедшие не сложную регистрацию
    Показать сообщения:    

    Дик Трэйси через торрент
    Скачать бесплатно Дик Трэйси
    Дик Трэйси скачать торрент
    Дик Трэйси смотреть онлайн
    Cкачать фильм Дик Трэйси бесплатно
    Дик Трэйси скачать торрент в хорошем качестве
    Дик Трэйси смотреть онлайн бесплатно в хорошем качестве


    Вы не можете начинать темы
    Вы не можете отвечать на сообщения
    Вы не можете редактировать свои сообщения
    Вы не можете удалять свои сообщения
    Вы не можете голосовать в опросах
    Вы не можете прикреплять файлы к сообщениям
    Вы можете скачивать файлы