Ссылка на приватное зеркало нашего сайта всего за 1$. Внимание количество ограничено!!!

2 сезон

iTunes

1 сезон

1

iTunes

iTunes

iTunes

1 сезон

RePack

30

ИГРА 18+

pack

ВАЖНО

!!Акция!!

Alien_RageХит недели

RePack

MK11
pack

Забери бонус

RePack

jed

!!Акция!!

Alien_Rage

RePack

fifa19

RePack

Assassins Creed: Odyssey

RePack

NEED FOR SPEED™ PAYBACK

4 сезон

9 сезон

Бесстыжие 9 сезон

Все сериалы

все сериалы на PB.wtf

RePack

FAR CRY 5
  

Клерки / Clerks (Кевин Смит) [1994, комедия, BDRip 720p] MVO, DVO, AVO, VO pb.wtf

Клерки через торрент pb.wtf

Раздают: 1 [ 0 KB/s ]
Размер: 7.02 GB | Добавлен: 5 лет 10 мес. назад | Торрент скачан:133 раза
Скачать  

24-12-2014 11:17 Клерки Скачать торрент  

Клерки / Clerks

Год выпуска: 1994
Страна: США
Жанр: комедия
Продолжительность: 01:31:47
Перевод: пррофессиональный многоголосый, профессиональный двухголосый, авторский, любительский одноголосый
Субтитры: русские, английские

Режиссёр: Кевин Смит

В ролях: Брайан О’Хэллоран, Джефф Андерсон, Мэрилин Гильотти, Лиза Спунхауэр, Джейсон Мьюз, Кевин Смит, Скотт Можер, Скотт Скьяффо, Эл Берковиц, Уолтер Флэнаган, Эд Хэпстак, Ли Бендик, Дэвид Клайн, Паттиджин Ксик, Кен Кларк, Донна Джинн, Вирджиния Смит, Бетси Бруссар, Эрнест О’Доннелл, Кимберли Лоугрэн, Гари Штерн, Джо Багнол, Джон Генри Вестхэд, Чак Бикел, Лесли Хоуп, Конни О’Коннор, Винсент Перейра, Эшли Перейра, Эрикс Инфанте, Мелисса Кроуфорд, Томас Бурк, Дэн Хэпстак, Митч Коэн, Мэттью Банта, Раджив Тхапар, Майк Беликос, Джейн Кериц, Грэйс Смит, Фрэнсис Крески, Мэтт Кроуфорд, Сарла Тхапар, Брайан Дринкуотер, Боб Фислер, Дерек Джеккодин, Мэттью Перейра, Фрэнк Перейра, Карл Рот

Описание: Когда утром зазвонил телефон, сонный Данте Хикс кубарем вывалился из стенного шкафа. Начинался новый день. Работая со своим лучшим другом Рэндалом в соседних магазинчиках, они обслуживают клиентов, среди которых иногда попадаются весьма странные личности! Но друзья не привыкли церемониться ни с кем! Вот только бы Данте разобраться с подругами: одна изменила ему уже восемь с половиной раз (однажды с Алиссией Джонс), у другой - он был 38-м. Горячий выдался денёк. Вдобавок, эти типы, что целый день тусуются у магазина..



Качество: BDRip 720p Сравнение с исходником
Формат: MKV
Видео кодек: H.264
Аудио кодек: AC3
Видео: 8496 Кбит/с, 1280x720, 23.976 кадра/с, 0.384 bpp
Аудио 1: русский, AC3, 448 kbps, 6 ch, 48 kHz [профессиональный многоголосый, West video]
Аудио 2: русский, AC3, 448 kbps, 6 ch, 48 kHz [профессиональный двухголосый, Tycoon]
Аудио 3: русский, AC3, 448 kbps, 6 ch, 48 kHz [авторский, Михаил Чадов]
Аудио 4: русский, AC3, 448 kbps, 6 ch, 48 kHz [любительрский, Kyberpunk, с ненормативной лексикой]
Аудио 5: английский, AC3, 448 kbps, 6 ch, 48 kHz [оригинал]

Имеются неименованные главы/чаптеры.
Премия в программе «Неделя критики» на МКФ в Канне в 1994 году.

Каннский кинофестиваль, 1994 год
Победитель (2):
Приз компании «Мерседес-Бенц»
Приз молодежного жюри (иностранное кино)

Сандэнс, 1994 год
Победитель (1):
Приз кинодеятелей в категории «Драматический фильм»

Номинации (1):
Гран-при в категории «Драматический фильм»
Общее
Уникальный идентификатор : 224507886073359391346066279469996895684 (0xA8E6A563CB1AC5BF9CEAA6FD5B98EDC4)
Полное имя : D:VideoKlerki.1994.BDRip.720p.mkv
Формат : Matroska
Версия формата : Version 4 / Version 2
Размер файла : 7,02 Гбайт
Продолжительность : 1 ч. 31 м.
Общий поток : 11,0 Мбит/сек
Дата кодирования : UTC 2014-12-24 08:58:12
Программа кодирования : mkvmerge v7.4.0 ('Circles') 64bit built on Dec 12 2014 12:19:56
Библиотека кодирования : libebml v1.3.0 + libmatroska v1.4.1
DURATION : 01:30:42.544000000
NUMBER_OF_FRAMES : 1718
NUMBER_OF_BYTES : 73848
_STATISTICS_WRITING_APP : mkvmerge v7.4.0 ('Circles') 64bit built on Dec 12 2014 12:19:56
_STATISTICS_WRITING_DATE_UTC : 2014-12-24 08:58:12
_STATISTICS_TAGS : BPS DURATION NUMBER_OF_FRAMES NUMBER_OF_BYTES

Видео
Идентификатор : 1
Формат : AVC
Формат/Информация : Advanced Video Codec
Профиль формата : High@L4.1
Параметр CABAC формата : Да
Параметр ReFrames формата : 9 кадров
Идентификатор кодека : V_MPEG4/ISO/AVC
Продолжительность : 1 ч. 31 м.
Битрейт : 8496 Кбит/сек
Ширина : 1280 пикселей
Высота : 720 пикселей
Соотношение сторон : 16:9
Режим частоты кадров : Постоянный
Частота кадров : 23,976 кадра/сек
Цветовое пространство : YUV
Субдискретизация насыщенности : 4:2:0
Битовая глубина : 8 бит
Тип развёртки : Прогрессивная
Бит/(Пиксели*Кадры) : 0.384
Размер потока : 5,45 Гбайт (78%)
Заголовок : BDRip -- STarankov
Библиотека кодирования : x264 core 142 r2431 ac76440
Настройки программы : cabac=1 / ref=9 / deblock=1:-1:-1 / analyse=0x3:0x113 / me=umh / subme=10 / psy=1 / psy_rd=1.00:0.15 / mixed_ref=1 / me_range=32 / chroma_me=1 / trellis=2 / 8x8dct=1 / cqm=0 / deadzone=21,11 / fast_pskip=1 / chroma_qp_offset=-3 / threads=6 / lookahead_threads=1 / sliced_threads=0 / nr=0 / decimate=1 / interlaced=0 / bluray_compat=0 / constrained_intra=0 / bframes=8 / b_pyramid=2 / b_adapt=2 / b_bias=0 / direct=3 / weightb=1 / open_gop=0 / weightp=2 / keyint=230 / keyint_min=23 / scenecut=40 / intra_refresh=0 / rc_lookahead=40 / rc=crf / mbtree=0 / crf=18.0 / qcomp=0.60 / qpmin=0 / qpmax=69 / qpstep=4 / vbv_maxrate=40000 / vbv_bufsize=50000 / crf_max=0.0 / nal_hrd=none / filler=0 / ip_ratio=1.40 / pb_ratio=1.30 / aq=1:1.00
Язык : English
Default : Да
Forced : Нет
DURATION : 01:31:47.002000000
NUMBER_OF_FRAMES : 132036
NUMBER_OF_BYTES : 5997291200
_STATISTICS_WRITING_APP : mkvmerge v7.4.0 ('Circles') 64bit built on Dec 12 2014 12:19:56
_STATISTICS_WRITING_DATE_UTC : 2014-12-24 08:58:12
_STATISTICS_TAGS : BPS DURATION NUMBER_OF_FRAMES NUMBER_OF_BYTES

Аудио #1
Идентификатор : 2
Формат : AC-3
Формат/Информация : Audio Coding 3
Расширение режима : CM (complete main)
Параметр Endianness формата : Big
Идентификатор кодека : A_AC3
Продолжительность : 1 ч. 31 м.
Вид битрейта : Постоянный
Битрейт : 448 Кбит/сек
Каналы : 6 каналов
Расположение каналов : Front: L C R, Side: L R, LFE
Частота : 48,0 КГц
Битовая глубина : 16 бит
Метод сжатия : С потерями
Размер потока : 294 Мбайт (4%)
Заголовок : MVO (West video)
Язык : Russian
Default : Да
Forced : Нет

Аудио #2
Идентификатор : 3
Формат : AC-3
Формат/Информация : Audio Coding 3
Расширение режима : CM (complete main)
Параметр Endianness формата : Big
Идентификатор кодека : A_AC3
Продолжительность : 1 ч. 31 м.
Вид битрейта : Постоянный
Битрейт : 448 Кбит/сек
Каналы : 6 каналов
Расположение каналов : Front: L C R, Side: L R, LFE
Частота : 48,0 КГц
Битовая глубина : 16 бит
Метод сжатия : С потерями
Размер потока : 294 Мбайт (4%)
Заголовок : DVO (Tycoon)
Язык : Russian
Default : Нет
Forced : Нет

Аудио #3
Идентификатор : 4
Формат : AC-3
Формат/Информация : Audio Coding 3
Расширение режима : CM (complete main)
Параметр Endianness формата : Big
Идентификатор кодека : A_AC3
Продолжительность : 1 ч. 31 м.
Вид битрейта : Постоянный
Битрейт : 448 Кбит/сек
Каналы : 6 каналов
Расположение каналов : Front: L C R, Side: L R, LFE
Частота : 48,0 КГц
Битовая глубина : 16 бит
Метод сжатия : С потерями
Размер потока : 294 Мбайт (4%)
Заголовок : AVO (Михаил Чадов)
Язык : Russian
Default : Нет
Forced : Нет

Аудио #4
Идентификатор : 5
Формат : AC-3
Формат/Информация : Audio Coding 3
Расширение режима : CM (complete main)
Параметр Endianness формата : Big
Идентификатор кодека : A_AC3
Продолжительность : 1 ч. 31 м.
Вид битрейта : Постоянный
Битрейт : 448 Кбит/сек
Каналы : 6 каналов
Расположение каналов : Front: L C R, Side: L R, LFE
Частота : 48,0 КГц
Битовая глубина : 16 бит
Метод сжатия : С потерями
Размер потока : 294 Мбайт (4%)
Заголовок : VO (Kyberpunk, любительский, с ненормативной лекской)
Язык : Russian
Default : Нет
Forced : Нет

Аудио #5
Идентификатор : 6
Формат : AC-3
Формат/Информация : Audio Coding 3
Расширение режима : CM (complete main)
Параметр Endianness формата : Big
Идентификатор кодека : A_AC3
Продолжительность : 1 ч. 31 м.
Вид битрейта : Постоянный
Битрейт : 448 Кбит/сек
Каналы : 6 каналов
Расположение каналов : Front: L C R, Side: L R, LFE
Частота : 48,0 КГц
Битовая глубина : 16 бит
Метод сжатия : С потерями
Размер потока : 294 Мбайт (4%)
Заголовок : Original
Язык : English
Default : Нет
Forced : Нет

Текст #1
Идентификатор : 7
Формат : UTF-8
Идентификатор кодека : S_TEXT/UTF8
Идентификатор кодека/Информация : UTF-8 Plain Text
Заголовок : русский
Язык : Russian
Default : Нет
Forced : Нет

Текст #2
Идентификатор : 8
Формат : UTF-8
Идентификатор кодека : S_TEXT/UTF8
Идентификатор кодека/Информация : UTF-8 Plain Text
Заголовок : английский
Default : Нет
Forced : Нет

Меню
00:00:00.000 : :Chapter 01
00:05:06.014 : :Chapter 02
00:07:28.073 : :Chapter 03
00:18:17.805 : :Chapter 04
00:21:14.147 : :Chapter 05
00:32:09.427 : :Chapter 06
00:35:39.262 : :Chapter 07
00:40:30.511 : :Chapter 08
00:46:57.773 : :Chapter 09
00:53:36.630 : :Chapter 10
00:57:17.017 : :Chapter 11
01:10:20.133 : :Chapter 12
01:12:10.158 : :Chapter 13
01:16:12.359 : :Chapter 14
01:19:44.363 : :Chapter 15
01:24:04.665 : :Chapter 16
01:27:35.375 : :Chapter 17
01:28:54.162 : :Chapter 18
pb.wtf



Скачать Клерки через торрент http://i64.fastpic.ru/big/2014/1224/87/7c7d2b976292d728a589e9424685d787.jpg Скачать фильм Клерки через торрент бесплантно в хорошем качестве Описание: Когда утром зазвонил телефон, сонный Данте Хикс кубарем вывалился из стенного шкафа. Начинался новый день. Работая со своим ... 8.2 10 5
Торрент: Зарегистрирован [2014-12-24 11:17] · скачан: 133 раз
Статус: √ проверено
Размер: 7.02 GB
Как cкачать? Как скачать Клерки через торрент | qTorrent

% Раздел Тема Автор DL S | L
Фильмы [HD 720p, 1080p] (Хороший звук DUB, MVO) [ 12.77 GB ] Клерки / Clerks [1994 BDRip 1080p] MVO DVO AVO VO msltel Скачать
2 | 0

28-11-2019 20:33  

Отключить всю рекламу на сайте

    Дорогой пользователь! Огромная просьба, поблагодарите релизера, оцените раздачу и оставьте свои комментарий, если Вы скачали Клерки через торрент бесплатно! Внесите свою лепту в развитие PiratBit!
    Комментировать посты могут только пользователи прошедшие не сложную регистрацию
    Показать сообщения:    

    Клерки через торрент
    Скачать бесплатно Клерки
    Клерки скачать торрент
    Клерки смотреть онлайн
    Cкачать фильм Клерки бесплатно
    Клерки скачать торрент в хорошем качестве
    Клерки смотреть онлайн бесплатно в хорошем качестве


    Вы не можете начинать темы
    Вы не можете отвечать на сообщения
    Вы не можете редактировать свои сообщения
    Вы не можете удалять свои сообщения
    Вы не можете голосовать в опросах
    Вы не можете прикреплять файлы к сообщениям
    Вы можете скачивать файлы