Ссылка на приватное зеркало нашего сайта всего за 1$. Внимание количество ограничено!!!

2 сезон

iTunes

1 сезон

1

iTunes

iTunes

iTunes

1 сезон

RePack

30

ИГРА 18+

pack

ВАЖНО

!!Акция!!

Alien_RageХит недели

RePack

MK11
pack

Забери бонус

RePack

jed

!!Акция!!

Alien_Rage

RePack

fifa19

RePack

Assassins Creed: Odyssey

RePack

NEED FOR SPEED™ PAYBACK

4 сезон

9 сезон

Бесстыжие 9 сезон

Все сериалы

все сериалы на PB.wtf

RePack

FAR CRY 5
  

Встреча выпускников 2: Похороны / Klassefesten 2: Begravelsen (Миккел Серуп / Mikkel Serup) [2014, Дания, комедия, HDRip) VO [Pashaup] pb.wtf

Встреча выпускников 2: Похороны через торрент pb.wtf

Размер: 1.45 GB | Добавлен: 5 лет 9 мес. назад | Торрент скачан:139 раз
Скачать  

25-12-2014 05:54 Встреча выпускников 2: Похороны Скачать торрент  

Встреча выпускников 2: Похороны / Klassefesten 2: Begravelsen


  • Год выпуска: 2014
  • Страна: Дания
  • Жанр: комедия
  • Продолжительность: 01:37:20
  • Перевод: Любительский (одноголосый) [Павел Морозов aka PashaUp] - по переводу [adelstein_s, sonnyb]

  • Режиссер: Миккел Серуп / Mikkel Serup
  • В ролях:

    Андерс В. Бертельсен (Andreas), Николай Коперникус (Niels), Троэльс Любю (Thomas), Ларс Ранте (Torben), Энн Софи Эсперсен (Gitte), Синье Скоу (Lærke), Андреа Ван Йенсен (Jette), Керстен Лефельдт (Torbens Mor), Мария Аскехаве (Malene), Ганс Хенрик Вётманн (Jørgen), Йетте Софи Сивертсен (Præst), Рикке Луиза Андерссон (Speeddatingsvært)

  • Описание:
    Томас, Андреас, Нильс собрались снова - на этот раз для празднования свадьбы Томаса и Лаерке. Андреас устраивает по этому поводу мальчишник. Однако внезапная смерть во время вечеринки другого приятеля - Торбена вносит в планы друзей коррективы. Теперь они должны отправиться в поездку на похороны Торбена. Как всегда, не обошлось без бурных приключений. Успеют ли друзья вернуться до начала свадебной церемонии? Смогут ли они сохранить прочность своей дружбы, разобраться в своих личных проблемах? Им многое предстоит испытать и понять.
  • Рейтинг:



  • Качество: HDRip
  • Формат: :AVI
  • Видео кодек: XviD
  • Аудио кодек: AC3
  • Видео: 720x304 (2.35:1), 1679 kbps, 24 fps, 0,320 bpp
  • Аудио: 5.1 / 48 kHz / 448 kbps / 16 bit
  • Релиз от: GEKADOL

    Код:

    General
    Complete name                            : D:\Фильмы\Klassefesten.2.2014.L1.HDRip.avi
    Format                                   : AVI
    Format/Info                              : Audio Video Interleave
    File size                                : 1.45 GiB
    Duration                                 : 1h 37mn
    Overall bit rate                         : 2 137 Kbps
    Writing application                      : VirtualDubMod 1.5.10.3 | www.virtualdub-fr.org || (build 2550/release)
    Writing library                          : VirtualDubMod build 2550/release

    Video
    ID                                       : 0
    Format                                   : MPEG-4 Visual
    Format profile                           : Advanced Simple@L5
    Format settings, BVOP                    : 1
    Format settings, QPel                    : No
    Format settings, GMC                     : No warppoints
    Format settings, Matrix                  : Custom
    Codec ID                                 : XVID
    Codec ID/Hint                            : XviD
    Duration                                 : 1h 37mn
    Bit rate                                 : 1 679 Kbps
    Width                                    : 720 pixels
    Height                                   : 304 pixels
    Display aspect ratio                     : 2.35:1
    Frame rate                               : 24.000 fps
    Color space                              : YUV
    Chroma subsampling                       : 4:2:0
    Bit depth                                : 8 bits
    Scan type                                : Progressive
    Compression mode                         : Lossy
    Bits/(Pixel*Frame)                       : 0.320
    Stream size                              : 1.14 GiB (79%)
    Writing library                          : XviD 73

    Audio
    ID                                       : 1
    Format                                   : AC-3
    Format/Info                              : Audio Coding 3
    Mode extension                           : CM (complete main)
    Codec ID                                 : 2000
    Duration                                 : 1h 37mn
    Bit rate mode                            : Constant
    Bit rate                                 : 448 Kbps
    Channel(s)                               : 6 channels
    Channel positions                        : Front: L C R, Side: L R, LFE
    Sampling rate                            : 48.0 KHz
    Bit depth                                : 16 bits
    Compression mode                         : Lossy
    Stream size                              : 312 MiB (21%)
    Alignment                                : Split accross interleaves
    Interleave, duration                     : 42 ms (1.00 video frame)
    Interleave, preload duration             : 500 ms


    Скриншоты:



    pb.wtf



  • Скачать Встреча выпускников 2: Похороны через торрент http://i63.fastpic.ru/big/2014/1225/ea/7504bcb50a910b23bac59dbe9854deea.jpg Скачать фильм Встреча выпускников 2: Похороны через торрент бесплантно в хорошем качестве Описание: Томас, Андреас, Нильс собрались снова - на этот раз для празднования свадьбы Томаса и Лаерке. Андреас устраивает по этому поводу ... 1 10 1
    Торрент: Зарегистрирован [2014-12-25 05:54] · скачан: 139 раз
    Статус: T временная
    Размер: 1.45 GB
    Как cкачать? Как скачать Встреча выпускников 2: Похороны через торрент | qTorrent

    28-11-2019 20:33  

    Отключить всю рекламу на сайте

      Дорогой пользователь! Огромная просьба, поблагодарите релизера, оцените раздачу и оставьте свои комментарий, если Вы скачали Встреча выпускников 2: Похороны через торрент бесплатно! Внесите свою лепту в развитие PiratBit!
      Комментировать посты могут только пользователи прошедшие не сложную регистрацию
      Показать сообщения:    

      Встреча выпускников 2: Похороны через торрент
      Скачать бесплатно Встреча выпускников 2: Похороны
      Встреча выпускников 2: Похороны скачать торрент
      Встреча выпускников 2: Похороны смотреть онлайн
      Cкачать фильм Встреча выпускников 2: Похороны бесплатно
      Встреча выпускников 2: Похороны скачать торрент в хорошем качестве
      Встреча выпускников 2: Похороны смотреть онлайн бесплатно в хорошем качестве


      Вы не можете начинать темы
      Вы не можете отвечать на сообщения
      Вы не можете редактировать свои сообщения
      Вы не можете удалять свои сообщения
      Вы не можете голосовать в опросах
      Вы не можете прикреплять файлы к сообщениям
      Вы можете скачивать файлы