Ссылка на приватное зеркало нашего сайта всего за 1$. Внимание количество ограничено!!!

2 сезон

iTunes

1 сезон

1

iTunes

iTunes

iTunes

1 сезон

RePack

30

ИГРА 18+

pack

ВАЖНО

!!Акция!!

Alien_RageХит недели

RePack

MK11
pack

Забери бонус

RePack

jed

!!Акция!!

Alien_Rage

RePack

fifa19

RePack

Assassins Creed: Odyssey

RePack

NEED FOR SPEED™ PAYBACK

4 сезон

9 сезон

Бесстыжие 9 сезон

Все сериалы

все сериалы на PB.wtf

RePack

FAR CRY 5
  

Опасные связи / Dangerous Liaisons (Стивен Фрирз) [1988, драма, мелодрама, BDRip 720p] DUB, AVO pb.wtf

Опасные связи через торрент pb.wtf

Размер: 7.86 GB | Добавлен: 5 лет 9 мес. назад | Торрент скачан:52 раза
Скачать  

25-12-2014 11:50 Опасные связи Скачать торрент  

Опасные связи / Dangerous Liaisons

Год выпуска: 1988
Страна: США, Великобритания
Жанр: драма, мелодрама
Продолжительность: 01:59:53
Перевод: дублированный, авторский
Субтитры: русские, английские

Режиссёр: Стивен Фрирз

В ролях: Гленн Клоуз, Джон Малкович, Мишель Пфайффер, Свузи Кёрц, Киану Ривз, Милдред Нэтвик, Ума Турман, Питер Капальди, Джо Шеридан, Валери Гоган, Лора Бенсон, Джоэнна Павлис, Николас Хоутри, Паулу Абел ду Нашименту, Франсуа Лаланд, Франсуа Монтагю, Гарри Джонс, Кристиан Эриксон, Катрин Кове

Описание: Франция XVIII столетия. Виконт Вальмон и маркиза де Мертей ведут опасную, чреватую разбитыми сердцами и искалеченными судьбами, игру. Маркиза, желая отомстить давнему любовнику Жеркуру, обещает Вальмону свою благосклонность, если он соблазнит Сесиль Воланж, юную невесту Жеркура. Вместо этого Вальмон увлекается госпожой де Турвель, совершенно забыв про договор, и маркизе приходится искать обходные пути. Невольно для себя безжалостный сердцеед Вальмон попадает под чары добродетельной жены президента Турвеля, задумываясь о той цене, которую придётся заплатить всем участникам случившейся интриги.
Фильм снят по мотивам романа Шодерло де Лакло «Опасные связи» (Les Liaisons dangereuses, 1782).



Качество: BDRip 720p Сравнение с исходником
Формат: MKV
Видео кодек: H.264
Аудио кодек: AC3
Видео: 7919 Кбит/с, 1280x720, 23.976 кадра/с, 0.358 bpp
Аудио 1: русский, AC3, 384 kbps, 6 ch, 48 kHz [дублированный, CP Digital]
Аудио 2: русский, AC3, 448 kbps, 6 ch, 48 kHz [авторский, Алексей Михалёв]
Аудио 3: английский, AC3, 448 kbps, 6 ch, 48 kHz [оригинал]

Имеются неименованные главы/чаптеры.
Приз Жозефа Плато за лучший иностранный фильм в Бельгии, «Бодиль» за лучшую неевропейскую картину в Дании (по итогам 1989 года).

Британская академия, 1990 год
Победитель (2):
Лучшая женская роль второго плана (Мишель Пфайффер)
Лучший адаптированный сценарий

Номинации (8):
Лучшая женская роль (Гленн Клоуз)
Лучший режиссер (Стивен Фрирз)
Лучшая работа оператора
Лучшие костюмы
Лучший монтаж
Лучший саундтрек
Лучший грим
Лучшая работа художника-постановщика

Сезар, 1990 год
Победитель (1):
Лучший фильм на иностранном языке

Оскар, 1989 год
Победитель (3):
Лучший адаптированный сценарий
Лучшие декорации
Лучшие костюмы

Номинации (4):
Лучший фильм
Лучшая женская роль (Гленн Клоуз)
Лучшая женская роль второго плана (Мишель Пфайффер)
Лучший оригинальный саундтрек
Общее
Уникальный идентификатор : 215572173663919241576001582819538407200 (0xA22DB0C0E96460E79669D9EF28F48F20)
Полное имя : D:VideoOpasnye svjazi.1988.BDRip.720p.mkv
Формат : Matroska
Версия формата : Version 4 / Version 2
Размер файла : 7,86 Гбайт
Продолжительность : 1 ч. 59 м.
Общий поток : 9385 Кбит/сек
Дата кодирования : UTC 2014-12-25 05:55:49
Программа кодирования : mkvmerge v7.4.0 ('Circles') 64bit built on Dec 12 2014 12:19:56
Библиотека кодирования : libebml v1.3.0 + libmatroska v1.4.1
DURATION : 01:55:21.122000000
NUMBER_OF_FRAMES : 1323
NUMBER_OF_BYTES : 49983
_STATISTICS_WRITING_APP : mkvmerge v7.4.0 ('Circles') 64bit built on Dec 12 2014 12:19:56
_STATISTICS_WRITING_DATE_UTC : 2014-12-25 05:55:49
_STATISTICS_TAGS : BPS DURATION NUMBER_OF_FRAMES NUMBER_OF_BYTES

Видео
Идентификатор : 1
Формат : AVC
Формат/Информация : Advanced Video Codec
Профиль формата : High@L4.1
Параметр CABAC формата : Да
Параметр ReFrames формата : 9 кадров
Идентификатор кодека : V_MPEG4/ISO/AVC
Продолжительность : 1 ч. 59 м.
Битрейт : 7919 Кбит/сек
Ширина : 1280 пикселей
Высота : 720 пикселей
Соотношение сторон : 16:9
Режим частоты кадров : Постоянный
Частота кадров : 23,976 кадра/сек
Цветовое пространство : YUV
Субдискретизация насыщенности : 4:2:0
Битовая глубина : 8 бит
Тип развёртки : Прогрессивная
Бит/(Пиксели*Кадры) : 0.358
Размер потока : 6,63 Гбайт (84%)
Заголовок : BDRip -- STarankov
Библиотека кодирования : x264 core 142 r2431 ac76440
Настройки программы : cabac=1 / ref=9 / deblock=1:-1:-1 / analyse=0x3:0x113 / me=umh / subme=10 / psy=1 / psy_rd=1.00:0.15 / mixed_ref=1 / me_range=32 / chroma_me=1 / trellis=2 / 8x8dct=1 / cqm=0 / deadzone=21,11 / fast_pskip=1 / chroma_qp_offset=-3 / threads=6 / lookahead_threads=1 / sliced_threads=0 / nr=0 / decimate=1 / interlaced=0 / bluray_compat=0 / constrained_intra=0 / bframes=8 / b_pyramid=2 / b_adapt=2 / b_bias=0 / direct=3 / weightb=1 / open_gop=0 / weightp=2 / keyint=230 / keyint_min=23 / scenecut=40 / intra_refresh=0 / rc_lookahead=40 / rc=crf / mbtree=0 / crf=19.0 / qcomp=0.60 / qpmin=0 / qpmax=69 / qpstep=4 / vbv_maxrate=40000 / vbv_bufsize=50000 / crf_max=0.0 / nal_hrd=none / filler=0 / ip_ratio=1.40 / pb_ratio=1.30 / aq=1:1.00
Язык : English
Default : Да
Forced : Нет
DURATION : 01:59:53.186000000
NUMBER_OF_FRAMES : 172464
NUMBER_OF_BYTES : 7285628364
_STATISTICS_WRITING_APP : mkvmerge v7.4.0 ('Circles') 64bit built on Dec 12 2014 12:19:56
_STATISTICS_WRITING_DATE_UTC : 2014-12-25 05:55:49
_STATISTICS_TAGS : BPS DURATION NUMBER_OF_FRAMES NUMBER_OF_BYTES

Аудио #1
Идентификатор : 2
Формат : AC-3
Формат/Информация : Audio Coding 3
Расширение режима : CM (complete main)
Параметр Endianness формата : Big
Идентификатор кодека : A_AC3
Продолжительность : 1 ч. 59 м.
Вид битрейта : Постоянный
Битрейт : 384 Кбит/сек
Каналы : 6 каналов
Расположение каналов : Front: L C R, Side: L R, LFE
Частота : 48,0 КГц
Битовая глубина : 16 бит
Метод сжатия : С потерями
Размер потока : 329 Мбайт (4%)
Заголовок : DUB (CP Digital)
Язык : Russian
Default : Да
Forced : Нет

Аудио #2
Идентификатор : 3
Формат : AC-3
Формат/Информация : Audio Coding 3
Расширение режима : CM (complete main)
Параметр Endianness формата : Big
Идентификатор кодека : A_AC3
Продолжительность : 1 ч. 59 м.
Вид битрейта : Постоянный
Битрейт : 448 Кбит/сек
Каналы : 6 каналов
Расположение каналов : Front: L C R, Side: L R, LFE
Частота : 48,0 КГц
Битовая глубина : 16 бит
Метод сжатия : С потерями
Размер потока : 384 Мбайт (5%)
Заголовок : AVO (Алексей Михалёв)
Язык : Russian
Default : Нет
Forced : Нет

Аудио #3
Идентификатор : 4
Формат : AC-3
Формат/Информация : Audio Coding 3
Расширение режима : CM (complete main)
Параметр Endianness формата : Big
Идентификатор кодека : A_AC3
Продолжительность : 1 ч. 59 м.
Вид битрейта : Постоянный
Битрейт : 448 Кбит/сек
Каналы : 6 каналов
Расположение каналов : Front: L C R, Side: L R, LFE
Частота : 48,0 КГц
Битовая глубина : 16 бит
Метод сжатия : С потерями
Размер потока : 384 Мбайт (5%)
Заголовок : Original
Язык : English
Default : Нет
Forced : Нет

Текст #1
Идентификатор : 5
Формат : UTF-8
Идентификатор кодека : S_TEXT/UTF8
Идентификатор кодека/Информация : UTF-8 Plain Text
Заголовок : русский
Язык : Russian
Default : Нет
Forced : Нет

Текст #2
Идентификатор : 6
Формат : UTF-8
Идентификатор кодека : S_TEXT/UTF8
Идентификатор кодека/Информация : UTF-8 Plain Text
Заголовок : английский
Default : Нет
Forced : Нет

Меню
00:00:00.000 : :Chapter 01
00:04:13.251 : :Chapter 02
00:06:45.071 : :Chapter 03
00:10:41.765 : :Chapter 04
00:13:08.328 : :Chapter 05
00:19:01.932 : :Chapter 06
00:22:14.708 : :Chapter 07
00:24:29.634 : :Chapter 08
00:27:49.291 : :Chapter 09
00:30:35.541 : :Chapter 10
00:33:03.772 : :Chapter 11
00:36:56.713 : :Chapter 12
00:41:03.460 : :Chapter 13
00:48:30.739 : :Chapter 14
00:52:46.579 : :Chapter 15
00:56:11.034 : :Chapter 16
00:59:39.992 : :Chapter 17
01:02:03.344 : :Chapter 18
01:07:08.564 : :Chapter 19
01:11:25.530 : :Chapter 20
01:14:36.220 : :Chapter 21
01:16:33.130 : :Chapter 22
01:20:29.740 : :Chapter 23
01:25:23.701 : :Chapter 24
01:30:46.439 : :Chapter 25
01:32:27.041 : :Chapter 26
01:36:16.479 : :Chapter 27
01:40:57.885 : :Chapter 28
01:46:31.967 : :Chapter 29
01:49:14.005 : :Chapter 30
01:52:59.689 : :Chapter 31
01:54:29.194 : :Chapter 32
01:55:38.221 : :Chapter 33
01:56:59.636 : :Chapter 34
01:59:52.976 : :Chapter 35
pb.wtf



Скачать Опасные связи через торрент http://i63.fastpic.ru/big/2014/1225/c9/40c18a5fc6867cb1fc29b3bc561deec9.jpg Скачать фильм Опасные связи через торрент бесплантно в хорошем качестве Описание: Франция XVIII столетия. Виконт Вальмон и маркиза де Мертей ведут опасную, чреватую разбитыми сердцами и искалеченными судьбами, ... 10 10 1
Торрент: Зарегистрирован [2014-12-25 11:50] · скачан: 52 раз
Статус: √ проверено
Размер: 7.86 GB
Как cкачать? Как скачать Опасные связи через торрент | qTorrent

% Раздел Тема Автор DL S | L
Фильмы [HD 720p, 1080p] (Хороший звук DUB, MVO) [ 18.7 GB ] Опасные связи / Dangerous Liaisons [1988 BDRip 1080p] DUB AVO msltel Скачать
1 | 0

28-11-2019 20:33  

Отключить всю рекламу на сайте

    Дорогой пользователь! Огромная просьба, поблагодарите релизера, оцените раздачу и оставьте свои комментарий, если Вы скачали Опасные связи через торрент бесплатно! Внесите свою лепту в развитие PiratBit!
    Комментировать посты могут только пользователи прошедшие не сложную регистрацию
    Показать сообщения:    

    Опасные связи через торрент
    Скачать бесплатно Опасные связи
    Опасные связи скачать торрент
    Опасные связи смотреть онлайн
    Cкачать фильм Опасные связи бесплатно
    Опасные связи скачать торрент в хорошем качестве
    Опасные связи смотреть онлайн бесплатно в хорошем качестве


    Вы не можете начинать темы
    Вы не можете отвечать на сообщения
    Вы не можете редактировать свои сообщения
    Вы не можете удалять свои сообщения
    Вы не можете голосовать в опросах
    Вы не можете прикреплять файлы к сообщениям
    Вы можете скачивать файлы