2 сезон

iTunes

MVO

1

2 сезон

iTunes

iTunes

1 сезон

RePack

30

Ultimate

ВАЖНО

ИГРА 18+

pack

RePack

MK11
pack

Легкие деньги

RePack

jed

RePack

fifa19

RePack

RDR2

RePack

NEED FOR SPEED™ PAYBACK

4 сезон

9 сезон

Бесстыжие 9 сезон

Все сериалы

все сериалы на PB.wtf

RePack

FAR CRY 5

Anonymous, доброе утро, мы не успеваем собрать деньги на оплату серверов за декабрь и январь, помогите нам пожалуйста в это трудное время. В качестве благодарности мы отключим Вам всю рекламу на сайте (укажите свой ник в строку Ваше имя)!

×
  
Magnet ссылка

Патруль времени / Predestination (Майкл Спириг / Michael Spierig, Питер Спириг / Peter Spierig) [2013, Австралия, фантастика, триллер, BDRip-AVC, Дубляж] / Чистый звук +MVO [BaibaKo] pb.wtf

Патруль времени через торрент pb.wtf

Размер: 2.31 GB | Добавлен: 6 лет назад | Торрент скачан:1232 раза
Скачать  

26-12-2014 02:33 Патруль времени Скачать торрент  

Патруль времени / Predestination
«Чтобы сохранить будущее, он должен изменить прошлое»


  • Год выпуска: 2013
  • Страна: Австралия
  • Жанр: фантастика, триллер
  • Продолжительность: 01:37:48
  • Перевод: Дубляж - [Чистый звук]+MVO [BaibaKo]

  • Режиссер: Майкл Спириг / Michael Spierig, Питер Спириг / Peter Spierig
  • В ролях:

    Сара Снук (The Unmarried Mother), Итан Хоук (The Bartender), Ноа Тейлор (Mr. Robertson), Элиз Джэнсен (Nurse), Кейт Вульф (Beth Fetherage), Фрея Стэффорд (Alice), Алисия Павлис (Hooker Girl Recruit), Кристофер Кирби (Agent Miles), Алексис Фернандес (Marcy / Amazon Woman), Роб Дженкинс (Mr. Jones), Мадлен Уэст (Mrs. Stapleton), Люсинда Армстронг Холл (Blonde-haired Classmate)

  • Описание:
    Специальный агент постоянно находится между прошлым и будущим, чтобы обеспечить себе карьеру законника длиною в вечность. В своем последнем задании ему предстоит завербовать в прошлом самого себя и, наконец, задержать преступника, который вновь и вновь ускользает от него в другое время, находясь всегда на шаг впереди него. «Чтобы сохранить будущее, он должен изменить прошлое»...
  • Рейтинг:



  • Качество: BDRip-AVC
  • Формат: :MKV
  • Видео кодек: AVC
  • Аудио кодек: AC3
  • Видео: 1024x426 (2.40:1), 2798 kbps, 23,976 fps, 0,268 bpp
  • Аудио №1: русский / 2.0 / 48 kHz / 192 kbps / 16 bit Дубляж - [Чистый звук]
  • Аудио №2: русский / 5.1 / 48 kHz / 384 kbps / 16 bit MVO [BaibaKo]
  • Релиз от: GEKADOL

    Код:

    General
    Unique ID                                : 234276023724857951357533474583334115303 (0xB03FEBC25ACFA4FDAB083A18E82857E7)
    Complete name                            : I:\Predestination. AVC. Dub. [Tarkin].mkv
    Format                                   : Matroska
    Format version                           : Version 4 / Version 2
    File size                                : 2.31 GiB
    Duration                                 : 1h 37mn
    Overall bit rate                         : 3 375 Kbps
    Encoded date                             : UTC 2014-12-25 22:52:37
    Writing application                      : mkvmerge v6.1.0 ('Old Devil') built on Mar  2 2013 14:32:37
    Writing library                          : libebml v1.3.0 + libmatroska v1.4.0

    Video
    ID                                       : 1
    Format                                   : AVC
    Format/Info                              : Advanced Video Codec
    Format profile                           : High@L4.1
    Format settings, CABAC                   : Yes
    Format settings, ReFrames                : 8 frames
    Codec ID                                 : V_MPEG4/ISO/AVC
    Duration                                 : 1h 37mn
    Bit rate                                 : 2 798 Kbps
    Width                                    : 1 024 pixels
    Height                                   : 426 pixels
    Display aspect ratio                     : 2.40:1
    Frame rate                               : 23.976 fps
    Color space                              : YUV
    Chroma subsampling                       : 4:2:0
    Bit depth                                : 8 bits
    Scan type                                : Progressive
    Bits/(Pixel*Frame)                       : 0.268
    Stream size                              : 1.87 GiB (81%)
    Writing library                          : x264 core 130 r2273 b3065e6
    Encoding settings                        : cabac=1 / ref=8 / deblock=1:-1:-2 / analyse=0x3:0x133 / me=umh / subme=11 / psy=1 / psy_rd=1.00:0.10 / mixed_ref=1 / me_range=32 / chroma_me=1 / trellis=2 / 8x8dct=1 / cqm=0 / deadzone=21,11 / fast_pskip=0 / chroma_qp_offset=-3 / threads=6 / lookahead_threads=1 / sliced_threads=0 / nr=0 / decimate=0 / interlaced=0 / bluray_compat=0 / constrained_intra=0 / bframes=3 / b_pyramid=2 / b_adapt=2 / b_bias=0 / direct=3 / weightb=1 / open_gop=0 / weightp=2 / keyint=240 / keyint_min=23 / scenecut=40 / intra_refresh=0 / rc_lookahead=50 / rc=2pass / mbtree=1 / bitrate=2798 / ratetol=1.0 / qcomp=0.60 / qpmin=0 / qpmax=69 / qpstep=4 / cplxblur=20.0 / qblur=0.5 / ip_ratio=1.40 / aq=1:1.00
    Default                                  : Yes
    Forced                                   : No

    Audio #1
    ID                                       : 2
    Format                                   : AC-3
    Format/Info                              : Audio Coding 3
    Mode extension                           : CM (complete main)
    Codec ID                                 : A_AC3
    Duration                                 : 1h 37mn
    Bit rate mode                            : Constant
    Bit rate                                 : 192 Kbps
    Channel(s)                               : 2 channels
    Channel positions                        : Front: L R
    Sampling rate                            : 48.0 KHz
    Bit depth                                : 16 bits
    Compression mode                         : Lossy
    Stream size                              : 134 MiB (6%)
    Title                                    : Дубляж
    Language                                 : Russian
    Default                                  : Yes
    Forced                                   : No

    Audio #2
    ID                                       : 3
    Format                                   : AC-3
    Format/Info                              : Audio Coding 3
    Mode extension                           : CM (complete main)
    Codec ID                                 : A_AC3
    Duration                                 : 1h 37mn
    Bit rate mode                            : Constant
    Bit rate                                 : 384 Kbps
    Channel(s)                               : 6 channels
    Channel positions                        : Front: L C R, Side: L R, LFE
    Sampling rate                            : 48.0 KHz
    Bit depth                                : 16 bits
    Compression mode                         : Lossy
    Stream size                              : 269 MiB (11%)
    Title                                    : MVO
    Language                                 : Russian
    Default                                  : No
    Forced                                   : No


    Скриншоты:



    pb.wtf



  • Скачать Патруль времени через торрент http://i68.fastpic.ru/big/2014/1226/ce/3ada5d606d18b4126b514803bdfb3fce.jpg Скачать фильм Патруль времени через торрент бесплантно в хорошем качестве Описание: Специальный агент постоянно находится между прошлым и будущим, чтобы обеспечить себе карьеру законника длиною в вечность. В своем ... 9.7 10 22
    Info! Золотая раздача, скачанное не засчитывается.
    Торрент: Зарегистрирован [2014-12-26 02:33] · скачан: 1 232 раз
    Статус: T временная
    Размер: 2.31 GB
    Как cкачать? Как скачать Патруль времени через торрент | UTorrent

    % Раздел Тема Автор DL S | L
    Фильмы [HD 720p, 1080p] (Хороший звук DUB, MVO) [ 5.76 GB ] Патруль времени / Predestination [2013 BDRip 720p] DUB MVO AVO potroks Скачать
    1 | 0
    Фильмы 2014 [DVDrip, WEB-DLRip, HDrip] [ 1.44 GB ] Патруль времени / Predestination [2014 HDRip многоголосый] Dean24 Скачать
    1 | 0
    Фильмы 2013 [DVDrip, WEB-DLRip, HDrip] [ 2.19 GB ] Патруль времени / Predestination [2014 BDRip-AVC] DUB potroks Скачать
    1 | 0
    Фильмы 2014 [DVDrip, WEB-DLRip, HDrip] [ 1.46 GB ] Патруль времени / Predestination [2014 HDRip] DUB Ворон Скачать
    1 | 0
    Фильмы [HD 720p, 1080p] (Хороший звук DUB, MVO) [ 8.04 GB ] Патруль времени / Predestination BDRip 1080p DEVI Скачать
    1 | 0
    Фильмы с авторской озвучкой [ 2.02 GB ] Патруль времени / Predestination [2013 HDRip] AVO coc900 Скачать
    1 | 0
    Фильмы 2013 [DVDrip, WEB-DLRip, HDrip] [ 1.46 GB ] Патруль времени / Predestination [2014 BDRip-AVC] DUB potroks Скачать
    1 | 0

    28-11-2019 20:33  

    Отключить всю рекламу на сайте

      Дорогой пользователь! Огромная просьба, поблагодарите релизера, оцените раздачу и оставьте свои комментарий, если Вы скачали Патруль времени через торрент бесплатно! Внесите свою лепту в развитие PiratBit!
      Комментировать посты могут только пользователи прошедшие не сложную регистрацию
      Показать сообщения:    

      Патруль времени через торрент
      Скачать бесплатно Патруль времени
      Патруль времени скачать торрент
      Патруль времени смотреть онлайн
      Cкачать фильм Патруль времени бесплатно
      Патруль времени скачать торрент в хорошем качестве
      Патруль времени смотреть онлайн бесплатно в хорошем качестве


      Вы не можете начинать темы
      Вы не можете отвечать на сообщения
      Вы не можете редактировать свои сообщения
      Вы не можете удалять свои сообщения
      Вы не можете голосовать в опросах
      Вы не можете прикреплять файлы к сообщениям
      Вы можете скачивать файлы