1 сезон

3 сезон

iTunes

1

iTunes

MVO

iTunes

13

1 сезон

RePack

30

Deluxe

pack

Лицензия

ВАЖНО

ИГРА 18+

pack

RePack

MK11

RePack

jed

RePack

fifa19

RePack

RDR2

RePack

NEED FOR SPEED™ PAYBACK

4 сезон

9 сезон

Бесстыжие 9 сезон

Все сериалы

все сериалы на PB.wtf

RePack

FAR CRY 5

Anonymous, добрый вечер, мы катастрофически не успеваем собрать деньги на оплату серверов, помогите нам пожалуйста 5,10,15р., для нас важна любая помощь . В качестве благодарности мы отключим Вам всю рекламу на сайте (укажите свой ник в строку Ваше имя)!

×
  
Magnet ссылка

Миллион лет до нашей эры / One Million Years B.C. (Полная версия) (Дон Чэффи / Don Chaffey) [1966, Великобритания, фэнтези, приключения,DVD Remux, pb.wtf

Миллион лет до нашей эры через торрент pb.wtf

Размер: 3.66 GB | Добавлен: 6 лет 6 мес. назад | Торрент скачан:65 раз
Скачать  

26-12-2014 15:02 Миллион лет до нашей эры Скачать торрент  

Миллион лет до нашей эры / One Million Years B.C.

Год выпуска: 1966
Страна: Великобритания
Жанр: фэнтези, приключения

Продолжительность: 01:36:05
Перевод: Не требуется Вступительное слово - на русском и английском языках, далее - только жесты и мимика героев фильма
Субтитры: Нет
Режиссер: Дон Чэффи / Don Chaffey
В ролях: Рэкел Уэлч (Loana), Джон Ричардсон (Tumak), Перси Херберт (Sakana), Роберт Браун (Akhoba), Мартин Бесвик (Nupondi), Жан Влэдон (Ahot), Лиза Томас (Sura), Малья Наппи (Tohana), Ричард Джеймс (Young Rock Man), Уильям Лион Браун (Payto), Фрэнк Хейден (1st Rock Man), Теренс Мэйдмент (1st Shell Man)
Описание:
Действие фильма происходит в вымышленное доисторическое время. Пещерные люди сосуществуют в одном мире с динозаврами и фантастическими существами.
Главный герой фильма Тумак изгнан из своего родного племени. После многих дней скитаний по пустыне, едва живого, его спасают от смерти незнакомые ему воины. Новые соплеменники гораздо более цивилизованы и продвинулись дальше в эволюции: имеют более совершенный язык, едят с тарелок, проводят обряд похорон. Тумак сближается с девушкой Лоаной. Тумак пытается украсть копьё одного из воинов, но оказывается пойман и изгнан из племени вместе с Лоаной.
Тумак и Лоана вынуждены скитаться, постоянно спасаясь от полной опасности доисторической фауны...
Рейтинг
kinopoisk.ru: 6.656 (986)
imdb.com: 5.60 (4888)
Для тех, кто смотрит фильмы с DVD-плеера!!! Перед тем, как записать фильм на болванку - необходимо просто изменить расширение: (mkv стереть, а вписать VOB)Данный фильм взят с диска DVD-5 и закатан в контейнер mkv без пережатия (сохранено оригинальное качество видео и аудио).
Качество: DVD Remux
Формат: MKV
Видео кодек: MPEG-2 Video
Аудио кодек:AC3
Видео: MPEG-2 Video, 720x576 (16:9), 4892 kbps, 25 fps, Interlaced (Top Field First), 0,472 bpp
Аудио №1: русский / AC3 / 2.0 / 48 kHz / 224 kbps / 16 bit
Аудио №2: английский / AC3 / 2.0 / 48 kHz / 224 kbps / 16 bit
General
Unique ID : 248637941493467232305437911555490673616 (0xBB0DECF994CA14F6B289DDD03E3373D0)
Complete name : D:\torrent\Миллион лет до нашей эры - One Million Years B.C. (1966) DVDRemux.mkv
Format : Matroska
Format version : Version 4 / Version 2
File size : 3.66 GiB
Duration : 1h 36mn
Overall bit rate mode : Variable
Overall bit rate : 5 449 Kbps
Movie name : Миллион лет до нашей эры - One Million Years B.C. (1966)
Encoded date : UTC 2014-08-29 15:55:48
Writing application : mkvmerge v6.8.0 ('Theme for Great Cities') 32bit built on Mar 2 2014 21:27:07
Writing library : libebml v1.3.0 + libmatroska v1.4.1

Video
ID : 1
Format : MPEG Video
Format version : Version 2
Format profile : Main@Main
Format settings, BVOP : No
Format settings, Matrix : Default
Codec ID : V_MPEG2
Codec ID/Info : MPEG 1 or 2 Video
Duration : 1h 36mn
Bit rate mode : Variable
Bit rate : 4 892 Kbps
Maximum bit rate : 7 145 Kbps
Width : 720 pixels
Height : 576 pixels
Display aspect ratio : 16:9
Frame rate : 25.000 fps
Standard : PAL
Color space : YUV
Chroma subsampling : 4:2:0
Bit depth : 8 bits
Scan type : Interlaced
Scan order : Top Field First
Compression mode : Lossy
Bits/(Pixel*Frame) : 0.472
Stream size : 3.28 GiB (90%)
Default : Yes
Forced : No

Audio #1
ID : 2
Format : AC-3
Format/Info : Audio Coding 3
Mode extension : CM (complete main)
Codec ID : A_AC3
Duration : 1h 36mn
Bit rate mode : Constant
Bit rate : 224 Kbps
Channel(s) : 2 channels
Channel positions : Front: L R
Sampling rate : 48.0 KHz
Bit depth : 16 bits
Compression mode : Lossy
Stream size : 154 MiB (4%)
Language : Russian
Default : Yes
Forced : No

Audio #2
ID : 3
Format : AC-3
Format/Info : Audio Coding 3
Mode extension : CM (complete main)
Codec ID : A_AC3
Duration : 1h 36mn
Bit rate mode : Constant
Bit rate : 224 Kbps
Channel(s) : 2 channels
Channel positions : Front: L R
Sampling rate : 48.0 KHz
Bit depth : 16 bits
Compression mode : Lossy
Stream size : 154 MiB (4%)
Language : English
Default : No
Forced : No



pb.wtf



Скачать Миллион лет до нашей эры через торрент http://i1.imageban.ru/out/2014/12/26/448407cc08876533aef9976d7675e719.jpg Скачать фильм Миллион лет до нашей эры через торрент бесплантно в хорошем качестве Описание: Действие фильма происходит в вымышленное доисторическое время. Пещерные люди сосуществуют в одном мире с динозаврами и ... 10 10 6
Торрент: Зарегистрирован [2014-12-26 15:02] · скачан: 65 раз
Статус: √ проверено
Размер: 3.66 GB
Как cкачать? Как скачать Миллион лет до нашей эры через торрент | UTorrent

28-11-2019 20:33  

Отключить всю рекламу на сайте

26-12-2014 17:37 Миллион лет до нашей эры Скачать торрент  

немногословный, но интересный.pb.wtf



    Дорогой пользователь! Огромная просьба, поблагодарите релизера, оцените раздачу и оставьте свои комментарий, если Вы скачали Миллион лет до нашей эры через торрент бесплатно! Внесите свою лепту в развитие PiratBit!
    Комментировать посты могут только пользователи прошедшие не сложную регистрацию
    Показать сообщения:    

    Миллион лет до нашей эры через торрент
    Скачать бесплатно Миллион лет до нашей эры
    Миллион лет до нашей эры скачать торрент
    Миллион лет до нашей эры смотреть онлайн
    Cкачать фильм Миллион лет до нашей эры бесплатно
    Миллион лет до нашей эры скачать торрент в хорошем качестве
    Миллион лет до нашей эры смотреть онлайн бесплатно в хорошем качестве


    Вы не можете начинать темы
    Вы не можете отвечать на сообщения
    Вы не можете редактировать свои сообщения
    Вы не можете удалять свои сообщения
    Вы не можете голосовать в опросах
    Вы не можете прикреплять файлы к сообщениям
    Вы можете скачивать файлы