Ссылка на приватное зеркало нашего сайта всего за 1$. Внимание количество ограничено!!!

2 сезон

iTunes

1 сезон

1

iTunes

iTunes

iTunes

1 сезон

RePack

30

ИГРА 18+

pack

ВАЖНО

!!Акция!!

Alien_RageХит недели

RePack

MK11
pack

Забери бонус

RePack

jed

!!Акция!!

Alien_Rage

RePack

fifa19

RePack

Assassins Creed: Odyssey

RePack

NEED FOR SPEED™ PAYBACK

4 сезон

9 сезон

Бесстыжие 9 сезон

Все сериалы

все сериалы на PB.wtf

RePack

FAR CRY 5
  

Прирожденный гонщик 2 / Born to Race: Fast Track (Алекс Ранаривело ) [2014, боевик, HDRip, Любительский (одноголосый) [ИндивИдуалист] pb.wtf

Прирожденный гонщик 2 через торрент pb.wtf

Размер: 1.45 GB | Добавлен: 5 лет 10 мес. назад | Торрент скачан:380 раз
Скачать  

26-12-2014 19:18 Прирожденный гонщик 2 Скачать торрент  

Прирожденный гонщик 2 / Born to Race: Fast Track

Год выпуска: 2014
Страна: США
Жанр: боевик
Продолжительность: 01:34:07
Перевод: Любительский (одноголосый) [ИндивИдуалист]
Режиссер: Алекс Ранаривело
В ролях: Бретт Даверн (Danny Krueger), Бо Мирчофф (Jake Kendall), Диого Моргадо (Enzo Lauricello), Тиффани Дюпон (Michelle), Билл Сейдж (Frank), Шэрон Лоуренс (Mrs. Dalton), Николь Бадаан (Jessica Dalton), Стив Бонд (Richard Duncannon), Корбин Бернсен (Liam Sterling), Грант Шоу (Jimmy Kendall), Альберто Фрезза (Paulo Lauricello), Джесси Люкен (Luke)
Описание:
Двадцатилетний уличный гонщик - Дэнни Крюгер не останавливается на достигнутом. Гонщик выиграл стипендию от школы вождения "Fast Lane" и двигается дальше. Теперь Дэнни старается доказать, что он достоен принять участие в более крупном соревновании - Lucas Oil Cup. Но не всё так просто... Непредвиденное обстоятельство и Дэнни вынужден сменить напарника. В прошлом соперник - ныне напарник, как Вам такая партия? Личные разногласия могут сыграть...
Рейтинг:

MPAA: PG - Рекомендуется присутствие родителей
Качество: HDRip
Формат: AVI
Видео кодек: XviD
Аудио кодек:AC3
Видео: XviD, 720x304 (2.35:1), 1742 kbps, 25 fps, 0,318 bpp
Аудио: AC3 / 5.1 / 48 kHz / 448 kbps / 16 bit

Код:

General
Complete name                            : D:\Торенты\Born to Race Fast Track_2014_HDRip_[scarabey.org].avi
Format                                   : AVI
Format/Info                              : Audio Video Interleave
File size                                : 1.45 GiB
Duration                                 : 1h 34mn
Overall bit rate                         : 2 200 Kbps
Writing application                      : VirtualDubModRus 1.5.10.2 (build 2542/release)
Writing library                          : VirtualDubMod build 2542/release

Video
ID                                       : 0
Format                                   : MPEG-4 Visual
Format profile                           : Advanced Simple@L5
Format settings, BVOP                    : 1
Format settings, QPel                    : No
Format settings, GMC                     : No warppoints
Format settings, Matrix                  : Custom
Codec ID                                 : XVID
Codec ID/Hint                            : XviD
Duration                                 : 1h 34mn
Bit rate                                 : 1 742 Kbps
Width                                    : 720 pixels
Height                                   : 304 pixels
Display aspect ratio                     : 2.35:1
Frame rate                               : 25.000 fps
Color space                              : YUV
Chroma subsampling                       : 4:2:0
Bit depth                                : 8 bits
Scan type                                : Progressive
Compression mode                         : Lossy
Bits/(Pixel*Frame)                       : 0.318
Stream size                              : 1.15 GiB (79%)
Writing library                          : XviD 73

Audio
ID                                       : 1
Format                                   : AC-3
Format/Info                              : Audio Coding 3
Mode extension                           : CM (complete main)
Codec ID                                 : 2000
Duration                                 : 1h 34mn
Bit rate mode                            : Constant
Bit rate                                 : 448 Kbps
Channel(s)                               : 6 channels
Channel positions                        : Front: L C R, Side: L R, LFE
Sampling rate                            : 48.0 KHz
Bit depth                                : 16 bits
Compression mode                         : Lossy
Stream size                              : 302 MiB (20%)
Alignment                                : Split accross interleaves
Interleave, duration                     : 40 ms (1.00 video frame)
Interleave, preload duration             : 500 ms

pb.wtf



Скачать Прирожденный гонщик 2 через торрент http://i63.fastpic.ru/big/2014/1226/9a/e83a885dd52e1f5e071b15ff2c64bd9a.png Скачать фильм Прирожденный гонщик 2 через торрент бесплантно в хорошем качестве Описание: Двадцатилетний уличный гонщик - Дэнни Крюгер не останавливается на достигнутом. Гонщик выиграл сендию от школы вождения "Fast ... 9 10 15
Торрент: Зарегистрирован [2014-12-26 19:18] · скачан: 380 раз
Статус: T временная
Размер: 1.45 GB
Как cкачать? Как скачать Прирожденный гонщик 2 через торрент | qTorrent

% Раздел Тема Автор DL S | L
# Фильмы [HD 720p, 1080p] (Звук Cam, VO, DVO) [ 7.44 GB ] Прирожденный гонщик 2 / Born to Race: Fast Track [2014 BDRip [1080p] Любительский [ИндивИдуалист] Ворон Скачать
1 | 0

28-11-2019 20:33  

Отключить всю рекламу на сайте

    Дорогой пользователь! Огромная просьба, поблагодарите релизера, оцените раздачу и оставьте свои комментарий, если Вы скачали Прирожденный гонщик 2 через торрент бесплатно! Внесите свою лепту в развитие PiratBit!
    Комментировать посты могут только пользователи прошедшие не сложную регистрацию
    Показать сообщения:    

    Прирожденный гонщик 2 через торрент
    Скачать бесплатно Прирожденный гонщик 2
    Прирожденный гонщик 2 скачать торрент
    Прирожденный гонщик 2 смотреть онлайн
    Cкачать фильм Прирожденный гонщик 2 бесплатно
    Прирожденный гонщик 2 скачать торрент в хорошем качестве
    Прирожденный гонщик 2 смотреть онлайн бесплатно в хорошем качестве


    Вы не можете начинать темы
    Вы не можете отвечать на сообщения
    Вы не можете редактировать свои сообщения
    Вы не можете удалять свои сообщения
    Вы не можете голосовать в опросах
    Вы не можете прикреплять файлы к сообщениям
    Вы можете скачивать файлы