2 сезон

iTunes

MVO

1

2 сезон

iTunes

iTunes

1 сезон

RePack

30

Ultimate

ВАЖНО

ИГРА 18+

pack

RePack

MK11
pack

Легкие деньги

RePack

jed

RePack

fifa19

RePack

RDR2

RePack

NEED FOR SPEED™ PAYBACK

4 сезон

9 сезон

Бесстыжие 9 сезон

Все сериалы

все сериалы на PB.wtf

RePack

FAR CRY 5

Anonymous, добрый вечер, мы не успеваем собрать деньги на оплату серверов за декабрь и январь, помогите нам пожалуйста в это трудное время. В качестве благодарности мы отключим Вам всю рекламу на сайте (укажите свой ник в строку Ваше имя)!

×
  
Magnet ссылка

Неправильные копы / Wrong Cops (Квентин Дюпьё / Quentin Dupieux) [2013, Франция, Россия, комедия, криминал, WEB-DLRip] MVO pb.wtf

Неправильные копы через торрент pb.wtf

Размер: 1.37 GB | Добавлен: 6 лет назад | Торрент скачан:440 раз
Скачать  

27-12-2014 03:32 Неправильные копы Скачать торрент  

Неправильные копы / Wrong Cops


  • Год выпуска: 2013
  • Страна: Франция, Россия
  • Жанр: комедия, криминал

  • Продолжительность: 01:22:11
  • Перевод: Профессиональный многоголосый закадровый

  • Режиссер: Квентин Дюпьё / Quentin Dupieux
  • В ролях:

    Марк Бёрнэм (Officer Duke), Эрик Жюдор (Officer Rough), Стив Литтл (Officer Sunshine), Мэрилин Мэнсон (David Dolores Frank), Грейс Забриски (Donna (Duke's mother)), Арден Майрин (Officer Holmes), Эрик Верхейм (Officer de Luca), Изабелла Пальмиери (Rose), Дэниэл Куинн (Neighbor), Хиллари Так (Kylie (Sunshine's wife)), Дженнифер Бланк (Ruth (Rough's neighbor)), Тим Тробек (André (Ruth's husband))

  • Описание:
    Дюк - продажный коп-меломан, в общем-то, фиговый полицейский. Торгует легкими наркотиками и пугает жителей Лос-Анджелеса. Среди его коллег в участке - сексуально озабоченный офицер, блондинка-шантажистка, семьянин с сомнительным прошлым и одноглазый маргинал, мечтающий о карьере техно-музыканта. Налаженная коррупционная система дает сбой, когда случайная жертва Дюка, подстреленный и запихнутый в багажник сосед, вдруг приходит в себя...
  • Рейтинг:



  • Качество: WEB-DLRip
  • Формат: :AVI
  • Видео кодек: XviD
  • Аудио кодек: AC3
  • Видео: 720x304 (2.35:1), 1987 kbps, 24 fps, 0,378 bpp
  • Аудио: 2.0 / 44 kHz / 384 kbps / 16 bit
  • Релиз от: GEKADOL

    Код:

    General
    Complete name                            : I:\Nepravenue.kopu.2013.P.WEB-DLRip.1400Mb.avi
    Format                                   : AVI
    Format/Info                              : Audio Video Interleave
    File size                                : 1.37 GiB
    Duration                                 : 1h 22mn
    Overall bit rate                         : 2 381 Kbps
    Writing application                      : VirtualDubMod 1.5.10.2 (build 2540/release)
    Writing library                          : VirtualDubMod build 2540/release

    Video
    ID                                       : 0
    Format                                   : MPEG-4 Visual
    Format profile                           : Advanced Simple@L5
    Format settings, BVOP                    : 2
    Format settings, QPel                    : No
    Format settings, GMC                     : No warppoints
    Format settings, Matrix                  : Default (MPEG)
    Codec ID                                 : XVID
    Codec ID/Hint                            : XviD
    Duration                                 : 1h 22mn
    Bit rate                                 : 1 988 Kbps
    Width                                    : 720 pixels
    Height                                   : 304 pixels
    Display aspect ratio                     : 2.35:1
    Frame rate                               : 24.000 fps
    Color space                              : YUV
    Chroma subsampling                       : 4:2:0
    Bit depth                                : 8 bits
    Scan type                                : Progressive
    Compression mode                         : Lossy
    Bits/(Pixel*Frame)                       : 0.378
    Stream size                              : 1.14 GiB (83%)
    Writing library                          : XviD 1.2.1 (UTC 2008-12-04)

    Audio
    ID                                       : 1
    Format                                   : AC-3
    Format/Info                              : Audio Coding 3
    Mode extension                           : CM (complete main)
    Codec ID                                 : 2000
    Duration                                 : 1h 22mn
    Bit rate mode                            : Constant
    Bit rate                                 : 384 Kbps
    Channel(s)                               : 2 channels
    Channel positions                        : Front: L R
    Sampling rate                            : 44.1 KHz
    Bit depth                                : 16 bits
    Compression mode                         : Lossy
    Stream size                              : 226 MiB (16%)
    Alignment                                : Split accross interleaves
    Interleave, duration                     : 42 ms (1.00 video frame)
    Interleave, preload duration             : 500 ms




    Скриншоты:



    pb.wtf



  • Скачать Неправильные копы через торрент http://i64.fastpic.ru/big/2014/1227/9c/45c41305a6d9e374d96ce338791e5a9c.jpg Скачать фильм Неправильные копы через торрент бесплантно в хорошем качестве Описание: Дюк - продажный коп-меломан, в общем-то, фиговый полицейский. Торгует легкими наркотиками и пугает жителей Лос-Анджелеса. Среди ... 8.2 10 15
    Торрент: Зарегистрирован [2014-12-27 03:32] · скачан: 440 раз
    Статус: T временная
    Размер: 1.37 GB
    Как cкачать? Как скачать Неправильные копы через торрент | UTorrent

    % Раздел Тема Автор DL S | L
    T Фильмы (WEB-DL 720p, 1080p) [ 2.75 GB ] Неправильные копы / Wrong Cops [2013 Россия WEB-DL 720p] MVO GEKADOL Скачать
    1 | 0

    28-11-2019 20:33  

    Отключить всю рекламу на сайте

    27-12-2014 06:03 Неправильные копы Скачать торрент  

    по описанию ничего примечательно, но любопытно посмотреть на этот ералаш ;)pb.wtf



    27-12-2014 18:19 Неправильные копы Скачать торрент  

    такой бредятины я еще не смотрел... no no no
    похоже снимали фильм накуренные ребятишки...pb.wtf



    07-01-2015 20:16 Неправильные копы Скачать торрент  

    zik-2 писал(а):

    такой бредятины я еще не смотрел... no no no
    похоже снимали фильм накуренные ребятишки...

    Поддерживаю!pb.wtf



      Дорогой пользователь! Огромная просьба, поблагодарите релизера, оцените раздачу и оставьте свои комментарий, если Вы скачали Неправильные копы через торрент бесплатно! Внесите свою лепту в развитие PiratBit!
      Комментировать посты могут только пользователи прошедшие не сложную регистрацию
      Показать сообщения:    

      Неправильные копы через торрент
      Скачать бесплатно Неправильные копы
      Неправильные копы скачать торрент
      Неправильные копы смотреть онлайн
      Cкачать фильм Неправильные копы бесплатно
      Неправильные копы скачать торрент в хорошем качестве
      Неправильные копы смотреть онлайн бесплатно в хорошем качестве


      Вы не можете начинать темы
      Вы не можете отвечать на сообщения
      Вы не можете редактировать свои сообщения
      Вы не можете удалять свои сообщения
      Вы не можете голосовать в опросах
      Вы не можете прикреплять файлы к сообщениям
      Вы можете скачивать файлы