Ссылка на приватное зеркало всего за 1$. Внимание количество ограничено!!!

iTunes

iTunes

iTunes

1

iTunes

iTunes

iTunes

iTunes

iTunes

30
pack

$ от Little Big

ВАЖНО

!!Акция!!

Alien_RageХит недели

RePack

Resident Evil 21

ИГРА 18+

pack

RePack

jed

!!Акция!!

Alien_Rage

RePack

fifa19

RePack

Assassins Creed: Odyssey

RePack

NEED FOR SPEED™ PAYBACK

4 сезон

9 сезон

Бесстыжие 9 сезон

Все сериалы

все сериалы на PB.wtf

RePack

FAR CRY 5
  

Неправильные копы / Wrong Cops (Квентин Дюпьё / Quentin Dupieux) [2013, Франция, Россия, комедия, криминал, WEB-DL 720p] MVO pb.wtf

Неправильные копы через торрент pb.wtf

Размер: 2.75 GB | Добавлен: 5 лет 6 мес. назад | Торрент скачан:495 раз
Скачать  

27-12-2014 03:49 Неправильные копы Скачать торрент  

Неправильные копы / Wrong Cops


  • Год выпуска: 2013
  • Страна: Франция, Россия
  • Жанр: комедия, криминал

  • Продолжительность: 01:22:10
  • Перевод: Профессиональный многоголосый закадровый

  • Режиссер: Квентин Дюпьё / Quentin Dupieux
  • В ролях:

    Марк Бёрнэм (Officer Duke), Эрик Жюдор (Officer Rough), Стив Литтл (Officer Sunshine), Мэрилин Мэнсон (David Dolores Frank), Грейс Забриски (Donna (Duke's mother)), Арден Майрин (Officer Holmes), Эрик Верхейм (Officer de Luca), Изабелла Пальмиери (Rose), Дэниэл Куинн (Neighbor), Хиллари Так (Kylie (Sunshine's wife)), Дженнифер Бланк (Ruth (Rough's neighbor)), Тим Тробек (André (Ruth's husband))

  • Описание:
    Дюк - продажный коп-меломан, в общем-то, фиговый полицейский. Торгует легкими наркотиками и пугает жителей Лос-Анджелеса. Среди его коллег в участке - сексуально озабоченный офицер, блондинка-шантажистка, семьянин с сомнительным прошлым и одноглазый маргинал, мечтающий о карьере техно-музыканта. Налаженная коррупционная система дает сбой, когда случайная жертва Дюка, подстреленный и запихнутый в багажник сосед, вдруг приходит в себя...
  • Рейтинг:



  • Качество: WEB-DL 720p
  • Формат: :MKV
  • Видео кодек: AVC
  • Аудио кодек: AC3
  • Видео: 960x532 (2.40:1), 3922 kbps, 29,970 fps, 0,256 bpp
  • Аудио №1: Русский 5.1 / 48 kHz / 384 kbps / 16 bit
  • Аудио №2: английский / 5.1 / 48 kHz / 384 kbps / 16 bit
  • Релиз от: GEKADOL

    Код:

    General
    Unique ID                                : 214926981417012183318977406913583992705 (0xA1B16E51DF69557488E3149193C74F81)
    Complete name                            : I:\Nepravenue.kopu.2013.P.WEB-DL.720p.mkv
    Format                                   : Matroska
    Format version                           : Version 2
    File size                                : 2.75 GiB
    Duration                                 : 1h 22mn
    Overall bit rate                         : 4 786 Kbps
    Encoded date                             : UTC 2014-12-26 23:16:12
    Writing application                      : mkvmerge v7.4.0 ('Circles') 64bit built on Dec 12 2014 12:19:56
    Writing library                          : libebml v1.3.0 + libmatroska v1.4.1
    DURATION                                 : 01:22:10.688000000
    NUMBER_OF_FRAMES                         : 154084
    NUMBER_OF_BYTES                          : 236673024
    _STATISTICS_WRITING_APP                  : mkvmerge v7.4.0 ('Circles') 64bit built on Dec 12 2014 12:19:56
    _STATISTICS_WRITING_DATE_UTC             : 2014-12-26 23:16:12
    _STATISTICS_TAGS                         : BPS DURATION NUMBER_OF_FRAMES NUMBER_OF_BYTES

    Video
    ID                                       : 1
    Format                                   : AVC
    Format/Info                              : Advanced Video Codec
    Format profile                           : Main@L3.1
    Format settings, CABAC                   : No
    Format settings, ReFrames                : 2 frames
    Codec ID                                 : V_MPEG4/ISO/AVC
    Duration                                 : 1h 22mn
    Bit rate                                 : 3 923 Kbps
    Width                                    : 960 pixels
    Height                                   : 532 pixels
    Display aspect ratio                     : 2.40:1
    Frame rate                               : 29.970 fps
    Color space                              : YUV
    Chroma subsampling                       : 4:2:0
    Bit depth                                : 8 bits
    Scan type                                : Progressive
    Bits/(Pixel*Frame)                       : 0.256
    Stream size                              : 2.25 GiB (82%)
    Language                                 : English
    Default                                  : Yes
    Forced                                   : No
    Color primaries                          : BT.709-5, BT.1361, IEC 61966-2-4, SMPTE RP177
    Transfer characteristics                 : BT.709-5, BT.1361
    Matrix coefficients                      : BT.709-5, BT.1361, IEC 61966-2-4 709, SMPTE RP177

    Audio #1
    ID                                       : 2
    Format                                   : AC-3
    Format/Info                              : Audio Coding 3
    Mode extension                           : CM (complete main)
    Codec ID                                 : A_AC3
    Duration                                 : 1h 22mn
    Bit rate mode                            : Constant
    Bit rate                                 : 384 Kbps
    Channel(s)                               : 6 channels
    Channel positions                        : Front: L C R, Side: L R, LFE
    Sampling rate                            : 48.0 KHz
    Bit depth                                : 16 bits
    Compression mode                         : Lossy
    Stream size                              : 226 MiB (8%)
    Default                                  : Yes
    Forced                                   : Yes

    Audio #2
    ID                                       : 3
    Format                                   : AC-3
    Format/Info                              : Audio Coding 3
    Mode extension                           : CM (complete main)
    Codec ID                                 : A_AC3
    Duration                                 : 1h 22mn
    Bit rate mode                            : Constant
    Bit rate                                 : 384 Kbps
    Channel(s)                               : 6 channels
    Channel positions                        : Front: L C R, Side: L R, LFE
    Sampling rate                            : 48.0 KHz
    Bit depth                                : 16 bits
    Compression mode                         : Lossy
    Stream size                              : 226 MiB (8%)
    Language                                 : English
    Default                                  : No
    Forced                                   : No

    Menu
    00:00:00.000                             : en:Chapter 1
    00:11:03.000                             : en:Chapter 2
    00:20:37.000                             : en:Chapter 3
    00:29:10.000                             : en:Chapter 4
    00:40:23.000                             : en:Chapter 5
    00:49:11.000                             : en:Chapter 6
    00:58:37.000                             : en:Chapter 7
    01:07:05.000                             : en:Chapter 8
    01:17:40.000                             : en:Chapter 9




    Скриншоты:



    pb.wtf



  • Скачать Неправильные копы через торрент http://i63.fastpic.ru/big/2014/1227/98/5254861561149cf39937a213d0460b98.jpg Скачать фильм Неправильные копы через торрент бесплантно в хорошем качестве Описание: Дюк - продажный коп-меломан, в общем-то, фиговый полицейский. Торгует легкими наркотиками и пугает жителей Лос-Анджелеса. Среди ... 9.8 10 16
    Торрент: Зарегистрирован [2014-12-27 03:49] · скачан: 495 раз
    Статус: T временная
    Размер: 2.75 GB
    Как cкачать? Как скачать Неправильные копы через торрент | qTorrent

    % Раздел Тема Автор DL S | L
    T Фильмы 2013 [DVDrip, WEB-DLRip, HDrip] [ 1.37 GB ] Неправильные копы / Wrong Cops [2013 Россия WEB-DLRip] MVO GEKADOL Скачать
    1 | 0

    28-11-2019 20:33  

    Отключить всю рекламу на сайте

    27-12-2014 18:19 Неправильные копы Скачать торрент  

    такой бредятины я еще не смотрел... no no no
    похоже снимали фильм накуренные ребятишки...pb.wtf



    28-12-2014 17:15 Неправильные копы Скачать торрент  

    а почему Страна: Франция, Россия ?pb.wtf



      Дорогой пользователь! Огромная просьба, поблагодарите релизера, оцените раздачу и оставьте свои комментарий, если Вы скачали Неправильные копы через торрент бесплатно! Внесите свою лепту в развитие PiratBit!
      Комментировать посты могут только пользователи прошедшие не сложную регистрацию
      Показать сообщения:    

      Неправильные копы через торрент
      Скачать бесплатно Неправильные копы
      Неправильные копы скачать торрент
      Неправильные копы смотреть онлайн
      Cкачать фильм Неправильные копы бесплатно
      Неправильные копы скачать торрент в хорошем качестве
      Неправильные копы смотреть онлайн бесплатно в хорошем качестве


      Вы не можете начинать темы
      Вы не можете отвечать на сообщения
      Вы не можете редактировать свои сообщения
      Вы не можете удалять свои сообщения
      Вы не можете голосовать в опросах
      Вы не можете прикреплять файлы к сообщениям
      Вы можете скачивать файлы