2 сезон

iTunes

MVO

1

2 сезон

iTunes

iTunes

1 сезон

RePack

30

Ultimate

ВАЖНО

ИГРА 18+

pack

RePack

MK11
pack

Легкие деньги

RePack

jed

RePack

fifa19

RePack

RDR2

RePack

NEED FOR SPEED™ PAYBACK

4 сезон

9 сезон

Бесстыжие 9 сезон

Все сериалы

все сериалы на PB.wtf

RePack

FAR CRY 5

Anonymous, добрый вечер, мы не успеваем собрать деньги на оплату серверов за декабрь и январь, помогите нам пожалуйста в это трудное время. В качестве благодарности мы отключим Вам всю рекламу на сайте (укажите свой ник в строку Ваше имя)!

×
  
Magnet ссылка

Невероятное путешествие мистера Спивета / L'extravagant voyage du jeune et prodigieux T.S. Spivet (Жан-Пьер Жёне ) [2013, приключения, семейный, драма, HDRip, Дубляж] / Чистый звук pb.wtf

Невероятное путешествие мистера Спивета через торрент pb.wtf

Размер: 1.46 GB | Добавлен: 6 лет назад | Торрент скачан:557 раз
Скачать  

27-12-2014 07:06 Невероятное путешествие мистера Спивета Скачать торрент  

Невероятное путешествие мистера Спивета / L'extravagant voyage du jeune et prodigieux T.S. Spivet

Год выпуска: 2013
Страна: Франция, Австралия, Канада
Жанр: приключения, семейный, драма
Продолжительность: 01:45:07
Перевод: Дубляж - [Чистый звук]
Режиссер: Жан-Пьер Жёне
В ролях: Кайл Кэтлетт (T.S. Spivet), Хелена Бонем Картер (Dr. Clair), Джуди Дэвис (G.H. Jibsen), Каллум Кит Ренни (Father), Нив Уилсон (Gracie), Джейкоб Дейвис (Layton), Рик Мерсер (Roy), Доминик Пинон (Two Clouds), Джулиан Ричингс (Ricky), Ричард Жютра (Mr. Stenpock), Майртин О’Кэрриган (Lecturer), Мишель Перрон
Описание:
История о приключениях 10-летнего гения по имени Т. С. Спивет, избранные работы которого его приятель рискнул отправить в один известный вашингтонский институт. Неожиданно Спивету звонят из этого института с приглашением приехать забрать престижную награду и заодно выступить с докладом. Мальчик сбегает из дома, но ему нужно проехать через всю страну...
Рейтинг:

Качество: HDRip
Формат: AVI
Видео кодек: XviD
Аудио кодек:AC3
Видео: XviD, 720x304 (2.35:1), 1594 kbps, 23,976 fps, 0,304 bpp
Аудио: AC3 / 2.0 / 48 kHz / 384 kbps / 16 bit

Код:

General
Complete name                            : D:\Торенты\N.p.mistera.Spivita.2013.D.HDRip.1.46GB.avi
Format                                   : AVI
Format/Info                              : Audio Video Interleave
File size                                : 1.46 GiB
Duration                                 : 1h 45mn
Overall bit rate                         : 1 988 Kbps
Writing application                      : VirtualDubMod 1.5.10.2 (build 2540/release)
Writing library                          : VirtualDubMod build 2540/release

Video
ID                                       : 0
Format                                   : MPEG-4 Visual
Format profile                           : Advanced Simple@L5
Format settings, BVOP                    : 2
Format settings, QPel                    : No
Format settings, GMC                     : No warppoints
Format settings, Matrix                  : Default (MPEG)
Codec ID                                 : XVID
Codec ID/Hint                            : XviD
Duration                                 : 1h 45mn
Bit rate                                 : 1 595 Kbps
Width                                    : 720 pixels
Height                                   : 304 pixels
Display aspect ratio                     : 2.35:1
Frame rate                               : 23.976 fps
Color space                              : YUV
Chroma subsampling                       : 4:2:0
Bit depth                                : 8 bits
Scan type                                : Progressive
Compression mode                         : Lossy
Bits/(Pixel*Frame)                       : 0.304
Stream size                              : 1.17 GiB (80%)
Writing library                          : XviD 1.2.1 (UTC 2008-12-04)

Audio
ID                                       : 1
Format                                   : AC-3
Format/Info                              : Audio Coding 3
Mode extension                           : CM (complete main)
Codec ID                                 : 2000
Duration                                 : 1h 45mn
Bit rate mode                            : Constant
Bit rate                                 : 384 Kbps
Channel(s)                               : 2 channels
Channel positions                        : Front: L R
Sampling rate                            : 48.0 KHz
Bit depth                                : 16 bits
Compression mode                         : Lossy
Stream size                              : 289 MiB (19%)
Alignment                                : Split accross interleaves
Interleave, duration                     : 42 ms (1.00 video frame)
Interleave, preload duration             : 500 ms

pb.wtf



Скачать Невероятное путешествие мистера Спивета через торрент http://i68.fastpic.ru/big/2014/1227/2c/178f49e8747e2ca53d107ea591553e2c.png Скачать фильм Невероятное путешествие мистера Спивета через торрент бесплантно в хорошем качестве Описание: История о приключениях 10-летнего гения по имени Т. С. Спивет, избранные работы которого его приятель рискнул отправить в один ... 9.9 10 20
Торрент: Зарегистрирован [2014-12-27 07:06] · скачан: 557 раз
Статус: T временная
Размер: 1.46 GB
Как cкачать? Как скачать Невероятное путешествие мистера Спивета через торрент | UTorrent

28-11-2019 20:33  

Отключить всю рекламу на сайте

29-12-2014 06:59 Невероятное путешествие мистера Спивета Скачать торрент  

как фильмpb.wtf



30-12-2014 15:55 Невероятное путешествие мистера Спивета Скачать торрент  

отличный фильм!!!!!!!!!!!!!pb.wtf



01-01-2015 19:07 Невероятное путешествие мистера Спивета Скачать торрент  

Фильм красивый, но совершенно не реалистичный. Не осилил досмотреть.pb.wtf



    Дорогой пользователь! Огромная просьба, поблагодарите релизера, оцените раздачу и оставьте свои комментарий, если Вы скачали Невероятное путешествие мистера Спивета через торрент бесплатно! Внесите свою лепту в развитие PiratBit!
    Комментировать посты могут только пользователи прошедшие не сложную регистрацию
    Показать сообщения:    

    Невероятное путешествие мистера Спивета через торрент
    Скачать бесплатно Невероятное путешествие мистера Спивета
    Невероятное путешествие мистера Спивета скачать торрент
    Невероятное путешествие мистера Спивета смотреть онлайн
    Cкачать фильм Невероятное путешествие мистера Спивета бесплатно
    Невероятное путешествие мистера Спивета скачать торрент в хорошем качестве
    Невероятное путешествие мистера Спивета смотреть онлайн бесплатно в хорошем качестве


    Вы не можете начинать темы
    Вы не можете отвечать на сообщения
    Вы не можете редактировать свои сообщения
    Вы не можете удалять свои сообщения
    Вы не можете голосовать в опросах
    Вы не можете прикреплять файлы к сообщениям
    Вы можете скачивать файлы