Ссылка на приватное зеркало нашего сайта всего за 1$. Внимание количество ограничено!!!

2 сезон

iTunes

1 сезон

1

iTunes

iTunes

iTunes

1 сезон

RePack

30

ИГРА 18+

pack

ВАЖНО

!!Акция!!

Alien_RageХит недели

RePack

MK11
pack

Забери бонус

RePack

jed

!!Акция!!

Alien_Rage

RePack

fifa19

RePack

Assassins Creed: Odyssey

RePack

NEED FOR SPEED™ PAYBACK

4 сезон

9 сезон

Бесстыжие 9 сезон

Все сериалы

все сериалы на PB.wtf

RePack

FAR CRY 5
  

Невероятное путешествие мистера Спивета / L'extravagant voyage du jeune et prodigieux T.S. Spivet (Жан-Пьер Жёне ) [2013, приключения, семейный, драма, BDRip (1080p), Дубляж] / Чистый звук pb.wtf

Невероятное путешествие мистера Спивета через торрент pb.wtf

Размер: 7.91 GB | Добавлен: 5 лет 9 мес. назад | Торрент скачан:181 раз
Скачать  

27-12-2014 07:42 Невероятное путешествие мистера Спивета Скачать торрент  

Невероятное путешествие мистера Спивета / L'extravagant voyage du jeune et prodigieux T.S. Spivet

Год выпуска: 2013
Страна: Франция, Австралия, Канада
Жанр: приключения, семейный, драма
Продолжительность: 01:45:07
Перевод: Дубляж - [Чистый звук]
Субтитры: French
Режиссер: Жан-Пьер Жёне
В ролях: Кайл Кэтлетт (T.S. Spivet), Хелена Бонем Картер (Dr. Clair), Джуди Дэвис (G.H. Jibsen), Каллум Кит Ренни (Father), Нив Уилсон (Gracie), Джейкоб Дейвис (Layton), Рик Мерсер (Roy), Доминик Пинон (Two Clouds), Джулиан Ричингс (Ricky), Ричард Жютра (Mr. Stenpock), Майртин О’Кэрриган (Lecturer), Мишель Перрон
Описание:
История о приключениях 10-летнего гения по имени Т. С. Спивет, избранные работы которого его приятель рискнул отправить в один известный вашингтонский институт. Неожиданно Спивету звонят из этого института с приглашением приехать забрать престижную награду и заодно выступить с докладом. Мальчик сбегает из дома, но ему нужно проехать через всю страну...
Рейтинг:

Качество: BDRip (1080p)
Формат: MKV
Видео кодек: AVC
Аудио кодек: DTS, AC3
Видео: MPEG-4 AVC, 8884 kb/s, 1920x800, 23,976 fps
Аудио: Дубляж / AC3 / 2.0 / 48 kHz / 384 kbps / 16 bit
Аудио2: English: DTS, 1510 kb/s (6 ch)/ 48 kHz

Код:

General
Unique ID                                : 190884030315391681999579204609767798797 (0x8F9AED4F263C655FB35D11B36756780D)
Complete name                            : Z:\BOX\N.p.mistera.Spivita.2013.D.BDRip.1080p.mkv
Format                                   : Matroska
Format version                           : Version 4 / Version 2
File size                                : 7.91 GiB
Duration                                 : 1h 45mn
Overall bit rate                         : 10.8 Mbps
Encoded date                             : UTC 2014-12-27 03:16:27
Writing application                      : mkvmerge v6.8.0 ('Theme for Great Cities') 64bit built on Mar  2 2014 21:34:26
Writing library                          : libebml v1.3.0 + libmatroska v1.4.1

Video
ID                                       : 1
Format                                   : AVC
Format/Info                              : Advanced Video Codec
Format profile                           : High@L4.1
Format settings, CABAC                   : Yes
Format settings, ReFrames                : 5 frames
Codec ID                                 : V_MPEG4/ISO/AVC
Duration                                 : 1h 45mn
Bit rate                                 : 8 884 Kbps
Width                                    : 1 920 pixels
Height                                   : 800 pixels
Display aspect ratio                     : 2.40:1
Frame rate mode                          : Constant
Frame rate                               : 23.976 fps
Color space                              : YUV
Chroma subsampling                       : 4:2:0
Bit depth                                : 8 bits
Scan type                                : Progressive
Bits/(Pixel*Frame)                       : 0.241
Stream size                              : 6.36 GiB (80%)
Writing library                          : x264 core 142 r2431 ac76440
Encoding settings                        : cabac=1 / ref=5 / deblock=1:-3:-3 / analyse=0x3:0x113 / me=umh / subme=8 / psy=1 / psy_rd=1.00:0.00 / mixed_ref=1 / me_range=16 / chroma_me=1 / trellis=1 / 8x8dct=1 / cqm=0 / deadzone=21,11 / fast_pskip=1 / chroma_qp_offset=-2 / threads=12 / lookahead_threads=2 / sliced_threads=0 / nr=0 / decimate=1 / interlaced=0 / bluray_compat=0 / constrained_intra=0 / bframes=3 / b_pyramid=2 / b_adapt=2 / b_bias=0 / direct=3 / weightb=1 / open_gop=0 / weightp=2 / keyint=240 / keyint_min=24 / scenecut=40 / intra_refresh=0 / rc_lookahead=50 / rc=2pass / mbtree=1 / bitrate=8884 / ratetol=1.0 / qcomp=0.60 / qpmin=0 / qpmax=69 / qpstep=4 / cplxblur=20.0 / qblur=0.5 / ip_ratio=1.40 / aq=1:1.00
Language                                 : English
Default                                  : Yes
Forced                                   : No

Audio #1
ID                                       : 2
Format                                   : AC-3
Format/Info                              : Audio Coding 3
Mode extension                           : CM (complete main)
Format settings, Endianness              : Big
Codec ID                                 : A_AC3
Duration                                 : 1h 45mn
Bit rate mode                            : Constant
Bit rate                                 : 384 Kbps
Channel(s)                               : 2 channels
Channel positions                        : Front: L R
Sampling rate                            : 48.0 KHz
Bit depth                                : 16 bits
Compression mode                         : Lossy
Stream size                              : 289 MiB (4%)
Language                                 : Russian
Default                                  : Yes
Forced                                   : Yes

Audio #2
ID                                       : 3
Format                                   : DTS
Format/Info                              : Digital Theater Systems
Mode                                     : 16
Format settings, Endianness              : Big
Codec ID                                 : A_DTS
Duration                                 : 1h 45mn
Bit rate mode                            : Constant
Bit rate                                 : 1 509 Kbps
Channel(s)                               : 6 channels
Channel positions                        : Front: L C R, Side: L R, LFE
Sampling rate                            : 48.0 KHz
Bit depth                                : 24 bits
Compression mode                         : Lossy
Stream size                              : 1.11 GiB (14%)
Title                                    : English DTS 1509kbps
Language                                 : English
Default                                  : No
Forced                                   : No

Text #1
ID                                       : 4
Format                                   : UTF-8
Codec ID                                 : S_TEXT/UTF8
Codec ID/Info                            : UTF-8 Plain Text
Title                                    : Forced
Language                                 : French
Default                                  : No
Forced                                   : No

Text #2
ID                                       : 5
Format                                   : UTF-8
Codec ID                                 : S_TEXT/UTF8
Codec ID/Info                            : UTF-8 Plain Text
Title                                    : French
Language                                 : French
Default                                  : No
Forced                                   : No

Menu
00:00:00.000                             : en:00:00:00.000
00:05:48.932                             : en:00:05:48.932
00:14:55.728                             : en:00:14:55.728
00:20:51.500                             : en:00:20:51.500
00:29:59.673                             : en:00:29:59.673
00:38:31.726                             : en:00:38:31.726
00:46:13.813                             : en:00:46:13.813
00:55:29.034                             : en:00:55:29.034
01:06:40.997                             : en:01:06:40.997
01:13:58.100                             : en:01:13:58.100
01:26:25.472                             : en:01:26:25.472
01:36:23.486                             : en:01:36:23.486

[/url]
pb.wtf



Скачать Невероятное путешествие мистера Спивета через торрент http://i68.fastpic.ru/big/2014/1227/2c/178f49e8747e2ca53d107ea591553e2c.png Скачать фильм Невероятное путешествие мистера Спивета через торрент бесплантно в хорошем качестве Описание: История о приключениях 10-летнего гения по имени Т. С. Спивет, избранные работы которого его приятель рискнул отправить в один ... 7.8 10 4
Info! Золотая раздача, скачанное не засчитывается.
Торрент: Зарегистрирован [2014-12-27 07:42] · скачан: 181 раз
Статус: T временная
Размер: 7.91 GB
Как cкачать? Как скачать Невероятное путешествие мистера Спивета через торрент | qTorrent

28-11-2019 20:33  

Отключить всю рекламу на сайте

    Дорогой пользователь! Огромная просьба, поблагодарите релизера, оцените раздачу и оставьте свои комментарий, если Вы скачали Невероятное путешествие мистера Спивета через торрент бесплатно! Внесите свою лепту в развитие PiratBit!
    Комментировать посты могут только пользователи прошедшие не сложную регистрацию
    Показать сообщения:    

    Невероятное путешествие мистера Спивета через торрент
    Скачать бесплатно Невероятное путешествие мистера Спивета
    Невероятное путешествие мистера Спивета скачать торрент
    Невероятное путешествие мистера Спивета смотреть онлайн
    Cкачать фильм Невероятное путешествие мистера Спивета бесплатно
    Невероятное путешествие мистера Спивета скачать торрент в хорошем качестве
    Невероятное путешествие мистера Спивета смотреть онлайн бесплатно в хорошем качестве


    Вы не можете начинать темы
    Вы не можете отвечать на сообщения
    Вы не можете редактировать свои сообщения
    Вы не можете удалять свои сообщения
    Вы не можете голосовать в опросах
    Вы не можете прикреплять файлы к сообщениям
    Вы можете скачивать файлы