Ссылка на приватное зеркало нашего сайта всего за 1$. Внимание количество ограничено!!!

2 сезон

iTunes

1 сезон

1

iTunes

iTunes

iTunes

1 сезон

RePack

30

ИГРА 18+

pack

ВАЖНО

!!Акция!!

Alien_RageХит недели

RePack

MK11
pack

Забери бонус

RePack

jed

!!Акция!!

Alien_Rage

RePack

fifa19

RePack

Assassins Creed: Odyssey

RePack

NEED FOR SPEED™ PAYBACK

4 сезон

9 сезон

Бесстыжие 9 сезон

Все сериалы

все сериалы на PB.wtf

RePack

FAR CRY 5
  

Хотел бы я быть здесь / Wish I Was Here (Зак Брафф ) [2014, драма, комедия, BDRip 1080p, Дублированный - [Лицензия] pb.wtf

Хотел бы я быть здесь через торрент pb.wtf

Размер: 7.76 GB | Добавлен: 5 лет 10 мес. назад | Торрент скачан:217 раз
Скачать  

27-12-2014 16:05 Хотел бы я быть здесь Скачать торрент  

Хотел бы я быть здесь / Wish I Was Here
«Жизнь — это шанс. Воспользуйся им»


Год выпуска: 2014
Страна: США
Жанр: драма, комедия
Продолжительность: 01:46:33
Перевод: Дублированный - [Лицензия]

Субтитры: английские (Full - ENG - BD), английские (SDH - ENG - BD)
Режиссер: Зак Брафф
В ролях: Зак Брафф , Кейт Хадсон , Джои Кинг , Пирс Гэнон , Мэнди Пэтинкин , Джош Гад , Эшли Грин , Джим Парсонс , Дональд Фэйсон , Александр Чаплин , Лесли Дэвид Бэйкер , Джеймс Эйври
Описание::
История Айдана Блума - актера, отца и мужа, который в свои 35 лет все еще пытается найти себя, цель своей жизни. Уча жизни двух своих детей, Айдан постепенно обнаруживает некоторые части себя, которые он не мог найти раньше...

Качество: BDRip 1080p (исходник Blu-ray)
Контейнер (Расширение): MKV
Видео кодек: AVC
Аудио кодек: AC3
Видео: 1920x800 (2.40:1), 9400 Кбит/сек, 23,976 кадр/сек, 0,255 Бит/[Пиксели*Кадры]
Аудио №1: русский / AC3 / 5.1 / 48 kHz / 384 kbps / 16 bit |Дублированный|
Аудио №2: английский / AC3 / 5.1 / 48 kHz / 640 kbps / 16 bit
Навигация по главам(Чаптеры): естьАвтор рипа: Сообщество:

Код:

Format                                   : Matroska
Format version                           : Version 2
File size                                : 7.76 GiB
Duration                                 : 1h 46mn
Overall bit rate                         : 10.4 Mbps
Movie name                               : Hotel by ja byt' zdes'.(2014).BDRip.1080p.[denis100]
Encoded date                             : UTC 2014-12-26 12:31:07
Writing application                      : mkvmerge v5.8.0 ('No Sleep / Pillow') built on Sep  2 2012 15:37:04
Writing library                          : libebml v1.2.3 + libmatroska v1.3.0
Attachment                               : Yes

Video
ID                                       : 1
Format                                   : AVC
Format/Info                              : Advanced Video Codec
Format profile                           : High@L4.1
Format settings, CABAC                   : Yes
Format settings, ReFrames                : 5 frames
Codec ID                                 : V_MPEG4/ISO/AVC
Duration                                 : 1h 46mn
Bit rate                                 : 9 400 Kbps
Width                                    : 1 920 pixels
Height                                   : 800 pixels
Display aspect ratio                     : 2.40:1
Frame rate                               : 23.976 fps
Color space                              : YUV
Chroma subsampling                       : 4:2:0
Bit depth                                : 8 bits
Scan type                                : Progressive
Bits/(Pixel*Frame)                       : 0.255
Stream size                              : 6.84 GiB (88%)
Title                                    : Hotel by ja byt' zdes'.(2014).BDRip.1080p.[denis100]
Writing library                          : x264 core 142 r2491 24e4fed
Encoding settings                        : cabac=1 / ref=5 / deblock=1:-3:-3 / analyse=0x3:0x133 / me=umh / subme=11 / psy=1 / psy_rd=1.00:0.00 / mixed_ref=1 / me_range=32 / chroma_me=1 / trellis=2 / 8x8dct=1 / cqm=0 / deadzone=21,11 / fast_pskip=0 / chroma_qp_offset=-2 / threads=6 / lookahead_threads=1 / sliced_threads=0 / nr=0 / decimate=1 / interlaced=0 / bluray_compat=0 / constrained_intra=0 / bframes=8 / b_pyramid=2 / b_adapt=2 / b_bias=0 / direct=3 / weightb=1 / open_gop=0 / weightp=2 / keyint=240 / keyint_min=23 / scenecut=40 / intra_refresh=0 / rc=2pass / mbtree=0 / bitrate=9400 / ratetol=1.0 / qcomp=0.60 / qpmin=0 / qpmax=69 / qpstep=4 / cplxblur=20.0 / qblur=0.5 / ip_ratio=1.40 / pb_ratio=1.30 / aq=2:0.90
Language                                 : English
Default                                  : Yes
Forced                                   : No

Audio #1
ID                                       : 2
Format                                   : AC-3
Format/Info                              : Audio Coding 3
Mode extension                           : CM (complete main)
Codec ID                                 : A_AC3
Duration                                 : 1h 46mn
Bit rate mode                            : Constant
Bit rate                                 : 384 Kbps
Channel(s)                               : 6 channels
Channel positions                        : Front: L C R, Side: L R, LFE
Sampling rate                            : 48.0 KHz
Bit depth                                : 16 bits
Compression mode                         : Lossy
Stream size                              : 293 MiB (4%)
Title                                    : Дублированный
Language                                 : Russian
Default                                  : Yes
Forced                                   : No

Audio #2
ID                                       : 3
Format                                   : AC-3
Format/Info                              : Audio Coding 3
Mode extension                           : CM (complete main)
Codec ID                                 : A_AC3
Duration                                 : 1h 46mn
Bit rate mode                            : Constant
Bit rate                                 : 640 Kbps
Channel(s)                               : 6 channels
Channel positions                        : Front: L C R, Side: L R, LFE
Sampling rate                            : 48.0 KHz
Bit depth                                : 16 bits
Compression mode                         : Lossy
Stream size                              : 488 MiB (6%)
Title                                    : English
Language                                 : English
Default                                  : No
Forced                                   : No

Text #1
ID                                       : 4
Format                                   : UTF-8
Codec ID                                 : S_TEXT/UTF8
Codec ID/Info                            : UTF-8 Plain Text
Title                                    : Full - ENG - BD
Language                                 : English
Default                                  : No
Forced                                   : No

Text #2
ID                                       : 5
Format                                   : UTF-8
Codec ID                                 : S_TEXT/UTF8
Codec ID/Info                            : UTF-8 Plain Text
Title                                    : SDH - ENG - BD
Language                                 : English
Default                                  : No
Forced                                   : No

Menu
00:00:00.000                             : en:Chapter 01
00:06:54.122                             : en:Chapter 02
00:11:44.704                             : en:Chapter 03
00:15:10.242                             : en:Chapter 04
00:21:38.880                             : en:Chapter 05
00:26:28.211                             : en:Chapter 06
00:31:29.220                             : en:Chapter 07
00:35:29.585                             : en:Chapter 08
00:39:58.896                             : en:Chapter 09
00:44:21.867                             : en:Chapter 10
00:47:58.625                             : en:Chapter 11
00:51:24.706                             : en:Chapter 12
00:57:09.676                             : en:Chapter 13
01:02:33.583                             : en:Chapter 14
01:10:12.291                             : en:Chapter 15
01:16:19.074                             : en:Chapter 16
01:21:15.537                             : en:Chapter 17
01:28:06.698                             : en:Chapter 18
01:35:15.209                             : en:Chapter 19
01:39:16.659                             : en:Chapter 20

x264 [info]: frame I:1309 Avg QP:13.40 size:291822
x264 [info]: frame P:33085 Avg QP:15.58 size: 92172
x264 [info]: frame B:118886 Avg QP:17.23 size: 34285
pb.wtf



Скачать Хотел бы я быть здесь через торрент http://i67.fastpic.ru/big/2014/1227/bb/c23591337dae2c6f6874515e08465dbb.png Скачать фильм Хотел бы я быть здесь через торрент бесплантно в хорошем качестве Описание::История Айдана Блума - актера, отца и мужа, который в свои 35 лет все еще пытается найти себя, цель своей жизни. Уча жизни двух ... 8.8 10 9
Торрент: Зарегистрирован [2014-12-27 16:05] · скачан: 217 раз
Статус: √ проверено
Размер: 7.76 GB
Как cкачать? Как скачать Хотел бы я быть здесь через торрент | qTorrent

% Раздел Тема Автор DL S | L
Фильмы 2014 [DVDrip, WEB-DLRip, HDrip] [ 1.46 GB ] Хотел бы я быть здесь / Wish I Was Here [2014 WEB-DLRip ] GEKADOL Скачать
1 | 0
Фильмы [HD 720p, 1080p] (Хороший звук DUB, MVO) [ 4.62 GB ] Хотел бы я быть здесь / Wish I Was Here [2014 BDRip 720p] [ Russia] + Original от R.G. PiratFilms Messa-fan Скачать
1 | 0
Фильмы 2014 [DVDrip, WEB-DLRip, HDrip] [ 2.05 GB ] Хотел бы я быть здесь / Wish I Was Here [2014 HDRip - / ] _KaisiK_ Скачать
1 | 0
Фильмы 2014 [DVDrip, WEB-DLRip, HDrip] [ 1.42 GB ] Хотел бы я быть здесь / Wish I Was Here [2014 WEB-DLRip-AVC ] От R.G. PiratFilms White Smoke Скачать
1 | 0

28-11-2019 20:33  

Отключить всю рекламу на сайте

    Дорогой пользователь! Огромная просьба, поблагодарите релизера, оцените раздачу и оставьте свои комментарий, если Вы скачали Хотел бы я быть здесь через торрент бесплатно! Внесите свою лепту в развитие PiratBit!
    Комментировать посты могут только пользователи прошедшие не сложную регистрацию
    Показать сообщения:    

    Хотел бы я быть здесь через торрент
    Скачать бесплатно Хотел бы я быть здесь
    Хотел бы я быть здесь скачать торрент
    Хотел бы я быть здесь смотреть онлайн
    Cкачать фильм Хотел бы я быть здесь бесплатно
    Хотел бы я быть здесь скачать торрент в хорошем качестве
    Хотел бы я быть здесь смотреть онлайн бесплатно в хорошем качестве


    Вы не можете начинать темы
    Вы не можете отвечать на сообщения
    Вы не можете редактировать свои сообщения
    Вы не можете удалять свои сообщения
    Вы не можете голосовать в опросах
    Вы не можете прикреплять файлы к сообщениям
    Вы можете скачивать файлы