Ссылка на приватное зеркало нашего сайта всего за 1$. Внимание количество ограничено!!!

2 сезон

iTunes

1 сезон

1

iTunes

iTunes

iTunes

1 сезон

RePack

30

ИГРА 18+

pack

ВАЖНО

!!Акция!!

Alien_RageХит недели

RePack

MK11
pack

Забери бонус

RePack

jed

!!Акция!!

Alien_Rage

RePack

fifa19

RePack

Assassins Creed: Odyssey

RePack

NEED FOR SPEED™ PAYBACK

4 сезон

9 сезон

Бесстыжие 9 сезон

Все сериалы

все сериалы на PB.wtf

RePack

FAR CRY 5
  

Временщик / Серии 1-8 из 8 (Юрий Музыка) [2014, Россия, приключения, фантастика, SATRip) pb.wtf

Временщик через торрент pb.wtf

Размер: 4.35 GB | Добавлен: 5 лет 9 мес. назад | Торрент скачан:608 раз
Скачать  

28-12-2014 01:53 Временщик Скачать торрент  

Временщик


  • Год выпуска: 2014
  • Страна: Россия
  • Жанр: приключения, фантастика
  • Продолжительность: 00:39:56 (Серия)
  • Перевод: Не требуется

  • Режиссер: Юрий Музыка
  • В ролях:

    Тимофей Каратаев, Наталья Скоморохова, Антон Шурцов, Михаил Ремезов, Даниил Дунц, Сергей Тезов, Алексей Гришин, Дмитрий Зеничев, Павел Ильин, Екатерина Крупенина, Андрей Межулис

  • Описание:
    Волею судьбы аспирант исторического факультета МГУ Павел Артемьев, специалист по теории энигматических (окутанных тайной) событий мировой истории, становится обладателем тайны Портала Времени, через который попадает в прошлое России и становится непосредственным участником именно тех событий, разгадкой которых занимался в тишине кабинета.
  • Рейтинг:



  • Качество: SATRip
  • Формат: :AVI
  • Видео кодек: XviD
  • Аудио кодек: MP3
  • Видео: 720x400 (16:9), 1799 kbps, 25 fps, 0,250 bpp
  • Аудио: 2.0 / 48 kHz / 128 kbps /
  • Релиз от: GEKADOL

    Код:

    General
    Complete name                            : I:\Vremenshhik.SATRip\Vremenshhik.08.SATRip.avi
    Format                                   : AVI
    Format/Info                              : Audio Video Interleave
    File size                                : 554 MiB
    Duration                                 : 39mn 56s
    Overall bit rate                         : 1 937 Kbps
    Writing application                      : VirtualDubMod 1.5.10.3 | www.virtualdub-fr.org || (build 2550/release)
    Writing library                          : VirtualDubMod build 2550/release

    Video
    ID                                       : 0
    Format                                   : MPEG-4 Visual
    Format profile                           : Advanced Simple@L5
    Format settings, BVOP                    : 2
    Format settings, QPel                    : No
    Format settings, GMC                     : No warppoints
    Format settings, Matrix                  : Default (H.263)
    Codec ID                                 : XVID
    Codec ID/Hint                            : XviD
    Duration                                 : 39mn 56s
    Bit rate                                 : 1 800 Kbps
    Width                                    : 720 pixels
    Height                                   : 400 pixels
    Display aspect ratio                     : 16:9
    Frame rate                               : 25.000 fps
    Color space                              : YUV
    Chroma subsampling                       : 4:2:0
    Bit depth                                : 8 bits
    Scan type                                : Progressive
    Compression mode                         : Lossy
    Bits/(Pixel*Frame)                       : 0.250
    Stream size                              : 514 MiB (93%)
    Writing library                          : XviD 1.2.1 (UTC 2008-12-04)

    Audio
    ID                                       : 1
    Format                                   : MPEG Audio
    Format version                           : Version 1
    Format profile                           : Layer 3
    Mode                                     : Joint stereo
    Mode extension                           : MS Stereo
    Codec ID                                 : 55
    Codec ID/Hint                            : MP3
    Duration                                 : 39mn 56s
    Bit rate mode                            : Constant
    Bit rate                                 : 128 Kbps
    Channel(s)                               : 2 channels
    Sampling rate                            : 48.0 KHz
    Compression mode                         : Lossy
    Stream size                              : 36.6 MiB (7%)
    Alignment                                : Aligned on interleaves
    Interleave, duration                     : 40 ms (1.00 video frame)
    Interleave, preload duration             : 504 ms
    Writing library                          : LAME3.99r
    Encoding settings                        : -m j -V 4 -q 9 -lowpass 17 -b 128


    Скриншоты:



    pb.wtf



  • Скачать Временщик через торрент http://i63.fastpic.ru/big/2014/1228/33/64087039092ea78f86cc0e7b4ae97533.jpg Скачать фильм Временщик через торрент бесплантно в хорошем качестве Описание: Волею судьбы аспирант исторического факультета МГУ Павел Артемьев, специалист по теории энигматических (окутанных тайной) событий ... 9.5 10 16
    Info! Золотая раздача, скачанное не засчитывается.
    Торрент: Зарегистрирован [2014-12-28 01:53] · скачан: 608 раз
    Статус: √ проверено
    Размер: 4.35 GB
    Как cкачать? Как скачать Временщик через торрент | qTorrent

    % Раздел Тема Автор DL S | L
    Наши сериалы [ 4.3 GB ] Временщик / Сезон: 1 / Серии: 1-8 из 8 [2014 SATRip] lug30 Скачать
    1 | 0

    28-11-2019 20:33  

    Отключить всю рекламу на сайте

    30-12-2014 16:04 Временщик Скачать торрент  

    Отличный сериал, рекомендую.pb.wtf



    04-01-2015 14:57 Временщик Скачать торрент  

    Как всегда в последних фильмах рассея вперед, Крым наш, неужели нельзя в фантастике без этого обойтись. Везде гребанная имперская пропаганда(((((pb.wtf



    14-01-2015 19:13 Временщик Скачать торрент  

    Arven, смотри украинские сериалы, и проблем не будет)))pb.wtf



    14-01-2015 20:28 Временщик Скачать торрент  

    :jest3: pb.wtf



      Дорогой пользователь! Огромная просьба, поблагодарите релизера, оцените раздачу и оставьте свои комментарий, если Вы скачали Временщик через торрент бесплатно! Внесите свою лепту в развитие PiratBit!
      Комментировать посты могут только пользователи прошедшие не сложную регистрацию
      Показать сообщения:    

      Временщик через торрент
      Скачать бесплатно Временщик
      Временщик скачать торрент
      Временщик смотреть онлайн
      Cкачать фильм Временщик бесплатно
      Временщик скачать торрент в хорошем качестве
      Временщик смотреть онлайн бесплатно в хорошем качестве


      Вы не можете начинать темы
      Вы не можете отвечать на сообщения
      Вы не можете редактировать свои сообщения
      Вы не можете удалять свои сообщения
      Вы не можете голосовать в опросах
      Вы не можете прикреплять файлы к сообщениям
      Вы можете скачивать файлы