2 сезон

iTunes

MVO

1

2 сезон

iTunes

iTunes

1 сезон

RePack

30

Ultimate

ВАЖНО

ИГРА 18+

pack

RePack

MK11
pack

Легкие деньги

RePack

jed

RePack

fifa19

RePack

RDR2

RePack

NEED FOR SPEED™ PAYBACK

4 сезон

9 сезон

Бесстыжие 9 сезон

Все сериалы

все сериалы на PB.wtf

RePack

FAR CRY 5

Anonymous, доброй ночи, мы не успеваем собрать деньги на оплату серверов за декабрь и январь, помогите нам пожалуйста в это трудное время. В качестве благодарности мы отключим Вам всю рекламу на сайте (укажите свой ник в строку Ваше имя)!

×
  
Magnet ссылка

Невероятное путешествие мистера Спивета 3D / L'extravagant voyage du jeune et prodigieux T.S. Spivet 3D (Жан-Пьер Жёне / Jean-Pierre Jeunet) [2013, Франция, Австралия, Канада, приключения, семейный, драма, BDRip1080p) DUB-[Чистый звук] (halfOU) pb.wtf

Невероятное путешествие мистера Спивета 3D через торрент pb.wtf

Размер: 9.27 GB | Добавлен: 6 лет назад | Торрент скачан:403 раза
Скачать  

28-12-2014 05:41 Невероятное путешествие мистера Спивета 3D Скачать торрент  

Невероятное путешествие мистера Спивета 3D / L'extravagant voyage du jeune et prodigieux T.S. Spivet 3D


  • Год выпуска: 2013
  • Страна: Франция, Австралия, Канада
  • Жанр: приключения, семейный, драма
  • Продолжительность: 01:45:03
  • Перевод: Дубляж - [Чистый звук]
  • Субтитры: русские (Форсированные), русские (Полные - Denniel Palmer)
  • Режиссер: Жан-Пьер Жёне / Jean-Pierre Jeunet
  • В ролях:

    Кайл Кэтлетт (T.S. Spivet), Хелена Бонем Картер (Dr. Clair), Джуди Дэвис (G.H. Jibsen), Каллум Кит Ренни (Father), Нив Уилсон (Gracie), Джейкоб Дейвис (Layton), Рик Мерсер (Roy), Доминик Пинон (Two Clouds), Джулиан Ричингс (Ricky), Ричард Жютра (Mr. Stenpock), Майртин О’Кэрриган (Lecturer), Мишель Перрон

  • Описание:
    12-летний Спивет слывет среди своих друзей настоящим гением, но свои изобретения парень мало кому показывает, будучи очень скромным. После того как его приятель отправляет некоторые его работы в знаменитый вашингтонский институт, Спивет получает приглашение на научную конференцию, где ему предстоит выступить с докладом и получить престижную награду. Естественно, его родители и слушать не хотят о поездке сына на другой конец страны, и тогда мальчик, сбегая из дому, отправляется в самостоятельное...
  • Рейтинг:



  • Качество: BDRip 1080p
  • Формат: :MKV
  • Видео кодек: AVC
  • Аудио кодек: AC3
  • Видео: 1920x1080 (16:9), 11357 kbps, 23,976 fps, 0,228 bpp
  • Аудио №1: русский / 2.0 / 48 kHz / 384 kbps / 16 bit [Чистый звук]
  • Аудио №2: английский / 5.1 / 48 kHz / 640 kbps / 16 bit
  • Формат 3D: Half OverUnder / Вертикальная анаморфная стереопара
  • Порядок ракурсов: левый ракурс первый
  • Релиз от: GEKADOL

    Код:

    General
    Unique ID                                : 242423597034768292130849356215925941779 (0xB661162342AFFAB7ABB0F0CE71512613)
    Complete name                            : I:\N.p.mistera.Spivita.2013.D.BDRip.1080p.3D.HOU_FreeRutor.mkv
    Format                                   : Matroska
    Format version                           : Version 4 / Version 2
    File size                                : 9.27 GiB
    Duration                                 : 1h 45mn
    Overall bit rate                         : 12.6 Mbps
    Encoded date                             : UTC 2014-12-27 19:33:46
    Writing application                      : mkvmerge v7.2.0 ('On Every Street') 64bit built on Sep 13 2014 15:52:10
    Writing library                          : libebml v1.3.0 + libmatroska v1.4.1
    DURATION                                 : 01:45:03.296000000
    NUMBER_OF_FRAMES                         : 196978
    NUMBER_OF_BYTES                          : 302558208
    _STATISTICS_WRITING_APP                  : mkvmerge v7.2.0 ('On Every Street') 64bit built on Sep 13 2014 15:52:10
    _STATISTICS_WRITING_DATE_UTC             : 2014-12-27 19:33:46
    _STATISTICS_TAGS                         : BPS DURATION NUMBER_OF_FRAMES NUMBER_OF_BYTES

    Video
    ID                                       : 1
    Format                                   : AVC
    Format/Info                              : Advanced Video Codec
    Format profile                           : High@L4.1
    Format settings, CABAC                   : Yes
    Format settings, ReFrames                : 4 frames
    Codec ID                                 : V_MPEG4/ISO/AVC
    Duration                                 : 1h 45mn
    Bit rate                                 : 11.4 Mbps
    Width                                    : 1 920 pixels
    Height                                   : 1 080 pixels
    Display aspect ratio                     : 16:9
    Frame rate                               : 23.976 fps
    Color space                              : YUV
    Chroma subsampling                       : 4:2:0
    Bit depth                                : 8 bits
    Scan type                                : Progressive
    Bits/(Pixel*Frame)                       : 0.228
    Stream size                              : 8.33 GiB (90%)
    Writing library                          : x264 core 129 r2245 bc13772
    Encoding settings                        : cabac=1 / ref=4 / deblock=1:-3:-3 / analyse=0x3:0x113 / me=umh / subme=10 / psy=1 / psy_rd=1.00:0.15 / mixed_ref=1 / me_range=32 / chroma_me=1 / trellis=2 / 8x8dct=1 / cqm=0 / deadzone=21,11 / fast_pskip=1 / chroma_qp_offset=-3 / threads=12 / lookahead_threads=2 / sliced_threads=0 / nr=0 / decimate=1 / interlaced=0 / bluray_compat=0 / constrained_intra=0 / bframes=9 / b_pyramid=2 / b_adapt=2 / b_bias=0 / direct=3 / weightb=1 / open_gop=0 / weightp=2 / keyint=250 / keyint_min=23 / scenecut=40 / intra_refresh=0 / rc_lookahead=60 / rc=crf / mbtree=1 / crf=17.5 / qcomp=0.70 / qpmin=0 / qpmax=69 / qpstep=4 / vbv_maxrate=40000 / vbv_bufsize=30000 / crf_max=0.0 / nal_hrd=none / frame-packing=4 / ip_ratio=1.40 / aq=1:0.70
    Language                                 : English
    Default                                  : Yes
    Forced                                   : No
    DURATION                                 : 01:45:03.381000000
    NUMBER_OF_FRAMES                         : 151130
    NUMBER_OF_BYTES                          : 9145260208
    _STATISTICS_WRITING_APP                  : mkvmerge v7.2.0 ('On Every Street') 64bit built on Sep 13 2014 15:52:10
    _STATISTICS_WRITING_DATE_UTC             : 2014-12-27 19:33:46
    _STATISTICS_TAGS                         : BPS DURATION NUMBER_OF_FRAMES NUMBER_OF_BYTES

    Audio #1
    ID                                       : 2
    Format                                   : AC-3
    Format/Info                              : Audio Coding 3
    Mode extension                           : CM (complete main)
    Codec ID                                 : A_AC3
    Duration                                 : 1h 45mn
    Bit rate mode                            : Constant
    Bit rate                                 : 384 Kbps
    Channel(s)                               : 2 channels
    Channel positions                        : Front: L R
    Sampling rate                            : 48.0 KHz
    Bit depth                                : 16 bits
    Compression mode                         : Lossy
    Stream size                              : 289 MiB (3%)
    Language                                 : Russian
    Default                                  : Yes
    Forced                                   : No

    Audio #2
    ID                                       : 3
    Format                                   : AC-3
    Format/Info                              : Audio Coding 3
    Mode extension                           : CM (complete main)
    Codec ID                                 : A_AC3
    Duration                                 : 1h 45mn
    Bit rate mode                            : Constant
    Bit rate                                 : 640 Kbps
    Channel(s)                               : 6 channels
    Channel positions                        : Front: L C R, Side: L R, LFE
    Sampling rate                            : 48.0 KHz
    Bit depth                                : 16 bits
    Compression mode                         : Lossy
    Stream size                              : 481 MiB (5%)
    Title                                    : Original - BD 3D Fre
    Language                                 : English
    Default                                  : No
    Forced                                   : No

    Text #1
    ID                                       : 4
    Format                                   : UTF-8
    Codec ID                                 : S_TEXT/UTF8
    Codec ID/Info                            : UTF-8 Plain Text
    Title                                    : Форсированные
    Language                                 : Russian
    Default                                  : Yes
    Forced                                   : No

    Text #2
    ID                                       : 5
    Format                                   : UTF-8
    Codec ID                                 : S_TEXT/UTF8
    Codec ID/Info                            : UTF-8 Plain Text
    Title                                    : Полные - Denniel Palmer
    Language                                 : Russian
    Default                                  : No
    Forced                                   : No

    Menu
    00:00:00.000                             : :1
    00:05:48.932                             : :2
    00:14:55.728                             : :3
    00:20:51.500                             : :4
    00:29:59.673                             : :5
    00:38:31.726                             : :6
    00:46:13.813                             : :7
    00:55:29.034                             : :8
    01:06:40.997                             : :9
    01:13:58.100                             : :10
    01:26:25.472                             : :11
    01:36:23.486                             : :12


    Скриншоты:
    скриншот   скриншот   скриншот   скриншот   скриншот  
    скриншот  


    pb.wtf



  • Скачать Невероятное путешествие мистера Спивета 3D через торрент http://i65.fastpic.ru/big/2014/1228/d6/c5afdb29caae61357f8e0d2fc02de5d6.jpg Скачать фильм Невероятное путешествие мистера Спивета 3D через торрент бесплантно в хорошем качестве Описание: 12-летний Спивет слывет среди своих друзей настоящим гением, но свои изобретения парень мало кому показывает, будучи очень ... 9.7 10 7
    Торрент: Зарегистрирован [2014-12-28 05:41] · скачан: 403 раз
    Статус: T временная
    Размер: 9.27 GB
    Как cкачать? Как скачать Невероятное путешествие мистера Спивета 3D через торрент | UTorrent

    28-11-2019 20:33  

    Отключить всю рекламу на сайте

    28-12-2014 10:16 Невероятное путешествие мистера Спивета 3D Скачать торрент  

    Очень хороший и красивый фильм!pb.wtf



      Дорогой пользователь! Огромная просьба, поблагодарите релизера, оцените раздачу и оставьте свои комментарий, если Вы скачали Невероятное путешествие мистера Спивета 3D через торрент бесплатно! Внесите свою лепту в развитие PiratBit!
      Комментировать посты могут только пользователи прошедшие не сложную регистрацию
      Показать сообщения:    

      Невероятное путешествие мистера Спивета 3D через торрент
      Скачать бесплатно Невероятное путешествие мистера Спивета 3D
      Невероятное путешествие мистера Спивета 3D скачать торрент
      Невероятное путешествие мистера Спивета 3D смотреть онлайн
      Cкачать фильм Невероятное путешествие мистера Спивета 3D бесплатно
      Невероятное путешествие мистера Спивета 3D скачать торрент в хорошем качестве
      Невероятное путешествие мистера Спивета 3D смотреть онлайн бесплатно в хорошем качестве


      Вы не можете начинать темы
      Вы не можете отвечать на сообщения
      Вы не можете редактировать свои сообщения
      Вы не можете удалять свои сообщения
      Вы не можете голосовать в опросах
      Вы не можете прикреплять файлы к сообщениям
      Вы можете скачивать файлы