Ссылка на приватное зеркало нашего сайта всего за 1$. Внимание количество ограничено!!!

2 сезон

iTunes

1 сезон

1

iTunes

iTunes

iTunes

1 сезон

RePack

30

ИГРА 18+

pack

ВАЖНО

!!Акция!!

Alien_RageХит недели

RePack

MK11
pack

Забери бонус

RePack

jed

!!Акция!!

Alien_Rage

RePack

fifa19

RePack

Assassins Creed: Odyssey

RePack

NEED FOR SPEED™ PAYBACK

4 сезон

9 сезон

Бесстыжие 9 сезон

Все сериалы

все сериалы на PB.wtf

RePack

FAR CRY 5
  

Влюбленный Шекспир / Shakespeare in Love (Джон Мэдден ) [1998, драма, мелодрама, комедия, BDRip 1080p, MVO,DVO] pb.wtf

Влюбленный Шекспир через торрент pb.wtf

Размер: 11.54 GB | Добавлен: 5 лет 9 мес. назад | Торрент скачан:19 раз
Скачать  

28-12-2014 09:48 Влюбленный Шекспир Скачать торрент  

Влюбленный Шекспир / Shakespeare in Love
«Love is the only inspiration»


Год выпуска: 1998
Страна: США
Жанр: драма, мелодрама, комедия
Продолжительность: 02:03:38
Перевод: Профессиональный многоголосый, Профессиональный (двухголосый)

Субтитры: русские (Russian), английские (English)
Режиссер: Джон Мэдден
В ролях: Гвинет Пэлтроу , Джозеф Файнс , Джеффри Раш , Колин Фёрт , Бен Аффлек , Джуди Денч , Саймон Кэллоу , Джим Картер , Мартин Клунес , Энтони Шер , Том Уилкинсон , Стив О’Доннелл
Описание::
1594 год. Молодой драматург Уильям Шекспир находится в творческом кризисе: муза покинула его, денег нет, хозяин театра требует от автора новую пьесу в кратчайший срок. И когда, казалось бы, у писателя не остается никакой надежды на обретение нового вдохновения, в его жизнь вторгается сама Любовь в лице обворожительной аристократки Виолы.
Под видом молодого актера девушка нанимается в труппу театра, чтобы сыграть главную мужскую роль в пьесе «Ромео и Джульетта». Виола не только преданная поклонница маэстро Шекспира, но и прекрасная актриса. Существует лишь одна загвоздка: Виола обручена с важным дворянином, который планирует отвезти будущую супругу в далекую английскую колонию...

Качество: BDRip 1080p (исходник Blu-ray)
Контейнер (Расширение): MKV
Видео кодек: AVC
Аудио кодек: AC3
Видео: 1916x820 (2.35:1), 11640 Кбит/сек, 23,976 кадр/сек, 0,309 Бит/[Пиксели*Кадры]
Аудио №1: русский / AC3 / 5.1 / 48 kHz / 448 kbps / 16 bit |Профессиональный (многоголосый закадровый) Позитив|
Аудио №2: русский / AC3 / 2.0 / 48 kHz / 256 kbps / 16 bit |Профессиональный (многоголосый закадровый) Universal R5|
Аудио №3: русский / AC3 / 2.0 / 48 kHz / 192 kbps / 16 bit |Профессиональный (двухголосый закадровый) Премьер|
Аудио №4: русский / AC3 / 2.0 / 48 kHz / 192 kbps / 16 bit |Профессиональный (многоголосый закадровый) НТВ|
Аудио №5: английский / AC3 / 5.1 / 48 kHz / 640 kbps / 16 bit
Навигация по главам(Чаптеры): естьАвтор рипа: Сообщество:

Код:

Format                                   : Matroska
Format version                           : Version 2
File size                                : 11.5 GiB
Duration                                 : 2h 3mn
Overall bit rate                         : 13.4 Mbps
Movie name                               : Vljublennyj Shekspir.(1998).BDRip.1080p.[denis100]
Encoded date                             : UTC 2014-12-28 09:29:03
Writing application                      : mkvmerge v5.8.0 ('No Sleep / Pillow') built on Sep  2 2012 15:37:04
Writing library                          : libebml v1.2.3 + libmatroska v1.3.0

Video
ID                                       : 1
Format                                   : AVC
Format/Info                              : Advanced Video Codec
Format profile                           : High@L4.1
Format settings, CABAC                   : Yes
Format settings, ReFrames                : 5 frames
Codec ID                                 : V_MPEG4/ISO/AVC
Duration                                 : 2h 3mn
Bit rate                                 : 11.6 Mbps
Width                                    : 1 916 pixels
Height                                   : 820 pixels
Display aspect ratio                     : 2.35:1
Frame rate                               : 23.976 fps
Color space                              : YUV
Chroma subsampling                       : 4:2:0
Bit depth                                : 8 bits
Scan type                                : Progressive
Bits/(Pixel*Frame)                       : 0.309
Stream size                              : 9.82 GiB (85%)
Title                                    : Vljublennyj Shekspir.(1998).BDRip.1080p.[denis100]
Writing library                          : x264 core 142 r2491 24e4fed
Encoding settings                        : cabac=1 / ref=5 / deblock=1:-3:-3 / analyse=0x3:0x133 / me=umh / subme=11 / psy=1 / psy_rd=1.00:0.00 / mixed_ref=1 / me_range=48 / chroma_me=1 / trellis=2 / 8x8dct=1 / cqm=0 / deadzone=21,11 / fast_pskip=0 / chroma_qp_offset=-2 / threads=6 / lookahead_threads=1 / sliced_threads=0 / nr=0 / decimate=1 / interlaced=0 / bluray_compat=0 / constrained_intra=0 / bframes=8 / b_pyramid=2 / b_adapt=2 / b_bias=0 / direct=3 / weightb=1 / open_gop=0 / weightp=2 / keyint=240 / keyint_min=23 / scenecut=40 / intra_refresh=0 / rc=2pass / mbtree=0 / bitrate=11640 / ratetol=1.0 / qcomp=0.60 / qpmin=0 / qpmax=69 / qpstep=4 / cplxblur=20.0 / qblur=0.5 / ip_ratio=1.40 / pb_ratio=1.30 / aq=1:0.90
Language                                 : English
Default                                  : Yes
Forced                                   : No

Audio #1
ID                                       : 2
Format                                   : AC-3
Format/Info                              : Audio Coding 3
Mode extension                           : CM (complete main)
Codec ID                                 : A_AC3
Duration                                 : 2h 3mn
Bit rate mode                            : Constant
Bit rate                                 : 448 Kbps
Channel(s)                               : 6 channels
Channel positions                        : Front: L C R, Side: L R, LFE
Sampling rate                            : 48.0 KHz
Bit depth                                : 16 bits
Compression mode                         : Lossy
Stream size                              : 396 MiB (3%)
Title                                    : Профессиональный (многоголосый закадровый) Позитив
Language                                 : Russian
Default                                  : Yes
Forced                                   : No

Audio #2
ID                                       : 3
Format                                   : AC-3
Format/Info                              : Audio Coding 3
Mode extension                           : CM (complete main)
Codec ID                                 : A_AC3
Duration                                 : 2h 3mn
Bit rate mode                            : Constant
Bit rate                                 : 256 Kbps
Channel(s)                               : 2 channels
Channel positions                        : Front: L R
Sampling rate                            : 48.0 KHz
Bit depth                                : 16 bits
Compression mode                         : Lossy
Stream size                              : 226 MiB (2%)
Title                                    : Профессиональный (многоголосый закадровый) Universal R5
Language                                 : Russian
Default                                  : No
Forced                                   : No

Audio #3
ID                                       : 4
Format                                   : AC-3
Format/Info                              : Audio Coding 3
Mode extension                           : CM (complete main)
Codec ID                                 : A_AC3
Duration                                 : 2h 3mn
Bit rate mode                            : Constant
Bit rate                                 : 192 Kbps
Channel(s)                               : 2 channels
Channel positions                        : Front: L R
Sampling rate                            : 48.0 KHz
Bit depth                                : 16 bits
Compression mode                         : Lossy
Stream size                              : 170 MiB (1%)
Title                                    : Профессиональный (двухголосый закадровый) Премьер
Language                                 : Russian
Default                                  : No
Forced                                   : No

Audio #4
ID                                       : 5
Format                                   : AC-3
Format/Info                              : Audio Coding 3
Mode extension                           : CM (complete main)
Codec ID                                 : A_AC3
Duration                                 : 2h 3mn
Bit rate mode                            : Constant
Bit rate                                 : 192 Kbps
Channel(s)                               : 2 channels
Channel positions                        : Front: L R
Sampling rate                            : 48.0 KHz
Bit depth                                : 16 bits
Compression mode                         : Lossy
Stream size                              : 170 MiB (1%)
Title                                    : Профессиональный (многоголосый закадровый) НТВ
Language                                 : Russian
Default                                  : No
Forced                                   : No

Audio #5
ID                                       : 6
Format                                   : AC-3
Format/Info                              : Audio Coding 3
Mode extension                           : CM (complete main)
Codec ID                                 : A_AC3
Duration                                 : 2h 3mn
Bit rate mode                            : Constant
Bit rate                                 : 640 Kbps
Channel(s)                               : 6 channels
Channel positions                        : Front: L C R, Side: L R, LFE
Sampling rate                            : 48.0 KHz
Bit depth                                : 16 bits
Compression mode                         : Lossy
Stream size                              : 566 MiB (5%)
Title                                    : English
Language                                 : English
Default                                  : No
Forced                                   : No

Text #1
ID                                       : 7
Format                                   : UTF-8
Codec ID                                 : S_TEXT/UTF8
Codec ID/Info                            : UTF-8 Plain Text
Title                                    : Russian
Language                                 : Russian
Default                                  : No
Forced                                   : No

Text #2
ID                                       : 8
Format                                   : UTF-8
Codec ID                                 : S_TEXT/UTF8
Codec ID/Info                            : UTF-8 Plain Text
Title                                    : English
Language                                 : English
Default                                  : No
Forced                                   : No

Menu
00:00:00.000                             : en:Program Start
00:00:40.371                             : en:Henslowe's Dilemma
00:04:03.741                             : en:Will
00:06:57.290                             : en:Writer's Block
00:09:31.988                             : en:The Chamberlain's Men
00:13:55.332                             : en:Poetry, Adventure And Love
00:16:04.129                             : en:"It's A Mystery"
00:18:37.199                             : en:Titles
00:23:18.188                             : en:The De Lesseps House
00:26:55.528                             : en:At First Sight
00:30:31.663                             : en:Inspiration
00:37:43.677                             : en:Arrangements
00:42:04.271                             : en:"How Do You Love Her"
00:45:45.199                             : en:"Better Than A Play"
00:51:13.070                             : en:Reading Lines
00:55:54.351                             : en:"Good Title"
01:00:33.045                             : en:Her Majesty
01:04:25.068                             : en:Writers' Quarrel
01:08:43.408                             : en:Bad News
01:11:55.019                             : en:To Church
01:15:11.506                             : en:"How Much I Loved You..."
01:18:44.551                             : en:The Final Draft
01:21:23.461                             : en:Confrontation
01:27:00.671                             : en:The Proposition
01:32:07.604                             : en:Opening Night
01:36:21.484                             : en:Juliet
01:39:04.020                             : en:Star-Crossed Lovers
01:46:02.020                             : en:Public Lewdness
01:50:27.787                             : en:Lady Wessex
01:55:26.461                             : en:Twelfth Night
01:57:32.045                             : en:End Credits

x264 [info]: frame I:1370 Avg QP:15.13 size:237630
x264 [info]: frame P:39442 Avg QP:17.08 size: 96903
x264 [info]: frame B:137008 Avg QP:19.17 size: 48475
pb.wtf



Скачать Влюбленный Шекспир через торрент http://i68.fastpic.ru/big/2014/1228/80/3258f5e600f60535bedd77fb02a82380.png Скачать фильм Влюбленный Шекспир через торрент бесплантно в хорошем качестве Описание::1594 год. Молодой драматург Уильям Шекспир находится в творческом кризисе: муза покинула его, денег нет, хозяин театра требует от ... 10 10 2
Info! Серебряная раздача, засчитывается только 50% скачанного.
Торрент: Зарегистрирован [2014-12-28 09:48] · скачан: 19 раз
Статус: √ проверено
Размер: 11.54 GB
Как cкачать? Как скачать Влюбленный Шекспир через торрент | qTorrent

% Раздел Тема Автор DL S | L
# Фильмы (WEB-DL 720p, 1080p) [ 8.92 GB ] Влюблённый Шекспир / Shakespeare in Love [1998 HDTVRip 1080p ] MVO msltel Скачать
1 | 0
Фильмы (WEB-DL 720p, 1080p) [ 4.15 GB ] Влюблённый Шекспир / Shakespeare in Love [1998 HDTVRip 720p ] MVO msltel Скачать
1 | 0
Фильмы до 2000 г. [ 1.37 GB ] Влюбленный Шекспир / Shakespeare in Love [1998 DVDRip] borislist1988 Скачать
1 | 0

28-11-2019 20:33  

Отключить всю рекламу на сайте

    Дорогой пользователь! Огромная просьба, поблагодарите релизера, оцените раздачу и оставьте свои комментарий, если Вы скачали Влюбленный Шекспир через торрент бесплатно! Внесите свою лепту в развитие PiratBit!
    Комментировать посты могут только пользователи прошедшие не сложную регистрацию
    Показать сообщения:    

    Влюбленный Шекспир через торрент
    Скачать бесплатно Влюбленный Шекспир
    Влюбленный Шекспир скачать торрент
    Влюбленный Шекспир смотреть онлайн
    Cкачать фильм Влюбленный Шекспир бесплатно
    Влюбленный Шекспир скачать торрент в хорошем качестве
    Влюбленный Шекспир смотреть онлайн бесплатно в хорошем качестве


    Вы не можете начинать темы
    Вы не можете отвечать на сообщения
    Вы не можете редактировать свои сообщения
    Вы не можете удалять свои сообщения
    Вы не можете голосовать в опросах
    Вы не можете прикреплять файлы к сообщениям
    Вы можете скачивать файлы