Ссылка на приватное зеркало нашего сайта всего за 1$. Внимание количество ограничено!!!

2 сезон

iTunes

1 сезон

1

iTunes

iTunes

iTunes

1 сезон

RePack

30

ИГРА 18+

pack

ВАЖНО

!!Акция!!

Alien_RageХит недели

RePack

MK11
pack

Забери бонус

RePack

jed

!!Акция!!

Alien_Rage

RePack

fifa19

RePack

Assassins Creed: Odyssey

RePack

NEED FOR SPEED™ PAYBACK

4 сезон

9 сезон

Бесстыжие 9 сезон

Все сериалы

все сериалы на PB.wtf

RePack

FAR CRY 5
  

Дело - труба / Brassed Off (Марк Херман) [1996, драма, мелодрама, комедия, BDRip 1080p] MVO pb.wtf

Дело - труба через торрент pb.wtf

Размер: 14.65 GB | Добавлен: 5 лет 9 мес. назад | Торрент скачан:11 раз
Скачать  

29-12-2014 11:03 Дело - труба Скачать торрент  

Дело - труба / Brassed Off

Год выпуска: 1996
Страна: Великобритания, США
Жанр: драма, мелодрама, комедия
Продолжительность: 01:47:27
Перевод: профессиональный многоголосый
Субтитры: русские, английские

Режиссёр: Марк Херман

В ролях: Пит Постлетуэйт, Тара Фитцджеральд, Эван МакГрегор, Стивен Томпкинсон, Джим Картер, Филип Джексон, Питер Мартин, Сью Джонстон, Мэри Хили, Мелани Хилл

Описание: В маленьком городке на севере Англии закрывается шахта, единственное городское предприятие. Вместе с ней умрёт и гордость горожан - любительский духовой оркестр. У местных жителей остаётся одна призрачная надежда - победа их любимцев в национальном чемпионате духовых оркестров. Но, не веря в успех, музыканты готовятся «повесить трубы на гвоздь», и тут в городок возвращается Глория, внучка легендарного бывшего руководителя оркестра и первая любовь трубача Энди. Её появление возрождает в мужчинах боевой дух...



Качество: BDRip 1080p Сравнение с исходником
Формат: MKV
Видео кодек: H.264
Аудио кодек: AC3
Видео: 18.5 Мбит/с, 1920x1080, 24 кадра/с, 0.372 bpp
Аудио 1: русский, AC3, 192 kbps, 2 ch, 48 kHz [профессиональный многоголосый, TV1000]
Аудио 2: английский, AC3, 448 kbps, 2 ch, 48 kHz [оригинал]

Имеются неименованные главы/чаптеры.
Сезар, 1998 год
Победитель (1):
Лучший фильм на иностранном языке

Гойя, 1998 год
Номинации (1):
Лучший европейский фильм — «Великобритания»

Британская академия, 1997 год
Номинации (3):
Лучший оригинальный сценарий
Премия имени Александра Корды за самый выдающийся британский фильм года
Премия имени Энтони Эскуита за достижения в создании музыки к фильму
Общее
Уникальный идентификатор : 172031658263725527379099757482117191760 (0x816C179AA22D9B6BA5E023CEAEB45850)
Полное имя : D:VideoDelo-truba.1996.BDRip.1080p.mkv
Формат : Matroska
Версия формата : Version 4 / Version 2
Размер файла : 14,6 Гбайт
Продолжительность : 1 ч. 47 м.
Общий поток : 19,5 Мбит/сек
Дата кодирования : UTC 2014-12-29 03:05:11
Программа кодирования : mkvmerge v7.4.0 ('Circles') 64bit built on Dec 12 2014 12:19:56
Библиотека кодирования : libebml v1.3.0 + libmatroska v1.4.1
DURATION : 01:41:59.417000000
NUMBER_OF_FRAMES : 1050
NUMBER_OF_BYTES : 41092
_STATISTICS_WRITING_APP : mkvmerge v7.4.0 ('Circles') 64bit built on Dec 12 2014 12:19:56
_STATISTICS_WRITING_DATE_UTC : 2014-12-29 03:05:11
_STATISTICS_TAGS : BPS DURATION NUMBER_OF_FRAMES NUMBER_OF_BYTES

Видео
Идентификатор : 1
Формат : AVC
Формат/Информация : Advanced Video Codec
Профиль формата : High@L4.1
Параметр CABAC формата : Да
Параметр ReFrames формата : 4 кадра
Идентификатор кодека : V_MPEG4/ISO/AVC
Продолжительность : 1 ч. 47 м.
Битрейт : 18,5 Мбит/сек
Ширина : 1920 пикселей
Высота : 1080 пикселей
Соотношение сторон : 16:9
Режим частоты кадров : Постоянный
Частота кадров : 24,000 кадра/сек
Цветовое пространство : YUV
Субдискретизация насыщенности : 4:2:0
Битовая глубина : 8 бит
Тип развёртки : Прогрессивная
Бит/(Пиксели*Кадры) : 0.372
Размер потока : 13,9 Гбайт (95%)
Заголовок : BDRip -- STarankov
Библиотека кодирования : x264 core 142 r2431 ac76440
Настройки программы : cabac=1 / ref=4 / deblock=1:-1:-1 / analyse=0x3:0x113 / me=umh / subme=10 / psy=1 / psy_rd=1.00:0.15 / mixed_ref=1 / me_range=32 / chroma_me=1 / trellis=2 / 8x8dct=1 / cqm=0 / deadzone=21,11 / fast_pskip=1 / chroma_qp_offset=-3 / threads=6 / lookahead_threads=1 / sliced_threads=0 / nr=0 / decimate=1 / interlaced=0 / bluray_compat=0 / constrained_intra=0 / bframes=8 / b_pyramid=2 / b_adapt=2 / b_bias=0 / direct=3 / weightb=1 / open_gop=0 / weightp=2 / keyint=230 / keyint_min=23 / scenecut=40 / intra_refresh=0 / rc_lookahead=40 / rc=crf / mbtree=0 / crf=19.7 / qcomp=0.60 / qpmin=0 / qpmax=69 / qpstep=4 / vbv_maxrate=40000 / vbv_bufsize=50000 / crf_max=0.0 / nal_hrd=none / filler=0 / ip_ratio=1.40 / pb_ratio=1.30 / aq=1:1.00
Язык : English
Default : Да
Forced : Нет
DURATION : 01:47:27.000000000
NUMBER_OF_FRAMES : 154728
NUMBER_OF_BYTES : 15211308579
_STATISTICS_WRITING_APP : mkvmerge v7.4.0 ('Circles') 64bit built on Dec 12 2014 12:19:56
_STATISTICS_WRITING_DATE_UTC : 2014-12-29 03:05:11
_STATISTICS_TAGS : BPS DURATION NUMBER_OF_FRAMES NUMBER_OF_BYTES

Аудио #1
Идентификатор : 2
Формат : AC-3
Формат/Информация : Audio Coding 3
Расширение режима : CM (complete main)
Параметр Endianness формата : Big
Идентификатор кодека : A_AC3
Продолжительность : 1 ч. 47 м.
Вид битрейта : Постоянный
Битрейт : 192 Кбит/сек
Каналы : 2 канала
Расположение каналов : Front: L R
Частота : 48,0 КГц
Битовая глубина : 16 бит
Метод сжатия : С потерями
Размер потока : 148 Мбайт (1%)
Заголовок : MVO (TV1000)
Язык : Russian
Default : Да
Forced : Нет

Аудио #2
Идентификатор : 3
Формат : AC-3
Формат/Информация : Audio Coding 3
Расширение режима : CM (complete main)
Параметр Endianness формата : Big
Идентификатор кодека : A_AC3
Продолжительность : 1 ч. 47 м.
Вид битрейта : Постоянный
Битрейт : 448 Кбит/сек
Каналы : 2 канала
Расположение каналов : Front: L R
Частота : 48,0 КГц
Битовая глубина : 16 бит
Метод сжатия : С потерями
Размер потока : 344 Мбайт (2%)
Заголовок : Original
Язык : English
Default : Нет
Forced : Нет

Текст #1
Идентификатор : 4
Формат : UTF-8
Идентификатор кодека : S_TEXT/UTF8
Идентификатор кодека/Информация : UTF-8 Plain Text
Заголовок : русский
Язык : Russian
Default : Нет
Forced : Нет

Текст #2
Идентификатор : 5
Формат : UTF-8
Идентификатор кодека : S_TEXT/UTF8
Идентификатор кодека/Информация : UTF-8 Plain Text
Заголовок : английский
Default : Нет
Forced : Нет

Меню
00:00:00.000 : :00:00:00.000
00:04:07.750 : :00:04:07.750
00:06:06.833 : :00:06:06.833
00:09:32.000 : :00:09:32.000
00:12:02.375 : :00:12:02.375
00:21:09.625 : :00:21:09.625
00:25:03.000 : :00:25:03.000
00:28:07.666 : :00:28:07.666
00:29:22.083 : :00:29:22.083
00:32:18.208 : :00:32:18.208
00:35:26.875 : :00:35:26.875
00:40:20.458 : :00:40:20.458
00:44:15.250 : :00:44:15.250
00:46:18.000 : :00:46:18.000
00:52:08.250 : :00:52:08.250
00:56:26.333 : :00:56:26.333
01:06:56.333 : :01:06:56.333
01:08:18.375 : :01:08:18.375
01:09:58.250 : :01:09:58.250
01:17:29.958 : :01:17:29.958
01:22:10.208 : :01:22:10.208
01:24:06.958 : :01:24:06.958
01:28:35.333 : :01:28:35.333
01:33:27.875 : :01:33:27.875
01:35:52.000 : :01:35:52.000
01:43:16.708 : :01:43:16.708
pb.wtf



Скачать Дело - труба через торрент http://i63.fastpic.ru/big/2014/1229/e1/6ac5cd296299dce0f883a7f803ec41e1.jpg Скачать фильм Дело - труба через торрент бесплантно в хорошем качестве Описание: В маленьком городке на севере Англии закрывается шахта, единственное городское предприятие. Вместе с ней умрёт и гордость горожан ... 8.3 10 3
Info! Золотая раздача, скачанное не засчитывается.
Торрент: Зарегистрирован [2014-12-29 11:03] · скачан: 11 раз
Статус: √ проверено
Размер: 14.65 GB
Как cкачать? Как скачать Дело - труба через торрент | qTorrent

% Раздел Тема Автор DL S | L
Фильмы [HD 720p, 1080p] (Хороший звук DUB, MVO) [ 6.14 GB ] Дело - труба / Brassed Off [1996 BDRip 720p] MVO msltel Скачать
1 | 0

28-11-2019 20:33  

Отключить всю рекламу на сайте

31-12-2014 09:10 Дело - труба Скачать торрент  

отличный фильм - pb.wtf



31-12-2014 09:48 Дело - труба Скачать торрент  

kpuctaluk писал(а):

отличный фильм -

Вообще-то, я стараюсь не распространять низкорейтинговые фильмы (разве что по просьбе).
А остальное - дело вкуса...pb.wtf



    Дорогой пользователь! Огромная просьба, поблагодарите релизера, оцените раздачу и оставьте свои комментарий, если Вы скачали Дело - труба через торрент бесплатно! Внесите свою лепту в развитие PiratBit!
    Комментировать посты могут только пользователи прошедшие не сложную регистрацию
    Показать сообщения:    

    Дело - труба через торрент
    Скачать бесплатно Дело - труба
    Дело - труба скачать торрент
    Дело - труба смотреть онлайн
    Cкачать фильм Дело - труба бесплатно
    Дело - труба скачать торрент в хорошем качестве
    Дело - труба смотреть онлайн бесплатно в хорошем качестве


    Вы не можете начинать темы
    Вы не можете отвечать на сообщения
    Вы не можете редактировать свои сообщения
    Вы не можете удалять свои сообщения
    Вы не можете голосовать в опросах
    Вы не можете прикреплять файлы к сообщениям
    Вы можете скачивать файлы