2 сезон

iTunes

MVO

1

2 сезон

iTunes

iTunes

1 сезон

RePack

30

Новинка

ВАЖНО

ИГРА 18+

pack

RePack

MK11
pack

Легкие деньги

RePack

jed

RePack

fifa19

RePack

RDR2

RePack

NEED FOR SPEED™ PAYBACK

4 сезон

9 сезон

Бесстыжие 9 сезон

Все сериалы

все сериалы на PB.wtf

RePack

FAR CRY 5

Anonymous, доброй ночи, мы не успеваем собрать деньги на оплату серверов за декабрь и январь, помогите нам пожалуйста в это трудное время. В качестве благодарности мы отключим Вам всю рекламу на сайте (укажите свой ник в строку Ваше имя)!

×
  
Magnet ссылка

Частоты / OXV: The Manual (Даррен Фишер) [2013 г., фантастика, драма, мелодрама, WEB-DLRip, Профессиональное (многоголосое) официальное] pb.wtf

Частоты через торрент pb.wtf

Размер: 1.46 GB | Добавлен: 6 лет назад | Торрент скачан:1013 раз
Скачать  

29-12-2014 19:05 Частоты Скачать торрент  

Частоты / OXV: The Manual
Год выпуска: 2013
Страна: Австралия, Великобритания
Жанр: фантастика, драма, мелодрама
Продолжительность: 01:44:55
Перевод: Профессиональное (многоголосое) официальное

Режиссер: Даррен Фишер
Продюссер: Даррен Фишер, Элис Хэйзел Хенли, Дэниэл М. Сан
Сценарий: Даррен Фишер
Премьера в мире: 27 сентября 2013

IMDB 7.10 (710)


В ролях: Дэниэл Фрайзер, Элинор Уайлд, Дилан Ллевелин, Georgina Minter-Brown, Оуэн Паг, Дэвид Бротон Дейвис, Дэвид Барнеби, Тимоти Блок, Риа Кэрролл, Том Инглэнд

Описание: Не слишком отдаленное будущее. Детей оценивают не только по интеллекту, но и по фреквенции — особой характеристике, показывающей резонанс ребенка с судьбой. Высокая фреквенция — и ты никогда не опоздаешь на поезд, даже если специально выйдешь на час позже. А по пути еще найдешь банкноту в 20 фунтов. Низкая — и все трудности этого мира словно собираются против тебя одного. Даже просто прийти на экзамен вовремя — большая проблема.А что, если парень с супернизкой фреквенцией встретит девушку с супервысокой? Что, если законы вселенной устроены так, что они не могут быть рядом больше одной минуты? Главный герой находит способ изменить свою фреквенцию, чтобы увеличить этот лимит, но обнаруживает весьма странный побочный эффект...

Качество: WEB-DLRip
Формат: AVI
Видео кодек: XviD
Аудио кодек: AC3
Видео: XviD, 1536 Кбит/с, 720x408, 25.000 fps
Аудио: AC3, 2 ch, 448 Кбит/с, 48.0 KHz
General
Complete name : /home/sb1855/files/4astoty.2013.P.WEB-DLRip.1.46GB.avi
Format : AVI
Format/Info : Audio Video Interleave
File size : 1.46 GiB
Duration : 1h 44mn
Overall bit rate : 1 995 Kbps
Writing application : VirtualDubMod 1.5.10.2 (build 2540/release)

Video
ID : 0
Format : MPEG-4 Visual
Format profile : Advanced Simple@L5
Format settings, BVOP : 3
Format settings, QPel : No
Format settings, GMC : No warppoints
Format settings, Matrix : Custom
Codec ID : XVID
Codec ID/Hint : XviD
Duration : 1h 44mn
Bit rate : 1 537 Kbps
Width : 720 pixels
Height : 408 pixels
Display aspect ratio : 16:9
Frame rate : 25.000 fps
Color space : YUV
Chroma subsampling : 4:2:0
Bit depth : 8 bits
Scan type : Progressive
Compression mode : Lossy
Bits/(Pixel*Frame) : 0.209
Stream size : 1.13 GiB (77%)
Writing library : XviD 1.2.1 (UTC 2008-12-04)

Audio
ID : 1
Format : AC-3
Format/Info : Audio Coding 3
Mode extension : CM (complete main)
Format settings, Endianness : Big
Codec ID : 2000
Duration : 1h 44mn
Bit rate mode : Constant
Bit rate : 448 Kbps
Channel(s) : 2 channels
Channel positions : Front: L R
Sampling rate : 48.0 KHz
Bit depth : 16 bits
Compression mode : Lossy
Stream size : 336 MiB (22%)
Alignment : Split accross interleaves
Interleave, duration : 40 ms (1.00 video frame)
Interleave, preload duration : 500 ms
скриншот   скриншот   скриншот  pb.wtf



Скачать Частоты через торрент http://pic.kartinco.top/images/8/ifjzc.jpg Скачать фильм Частоты через торрент бесплантно в хорошем качестве Описание: Не слишком отдаленное будущее. Детей оценивают не только по интеллекту, но и по фреквенции — особой характеристике, показывающей ... 8.8 10 23
Торрент: Зарегистрирован [2014-12-29 19:05] · скачан: 1 013 раз
Статус: √ проверено
Размер: 1.46 GB
Как cкачать? Как скачать Частоты через торрент | UTorrent

28-11-2019 20:33  

Отключить всю рекламу на сайте

29-12-2014 19:21 Частоты Скачать торрент  

Сама идея фильма очень интересна.pb.wtf



29-12-2014 21:28 Частоты Скачать торрент  

Идея то интересна, а вот исполнение не оченьpb.wtf



29-12-2014 21:48 Частоты Скачать торрент  

Деление на неудачников или везунчиков, возведённое в абсолют - идея интересна, но любовная история здесь лишняя.
Лучше бы развили линию с парнем который видел будущее, и с его замашками на вселенское господство, получилась бы неплохая фантастика
pb.wtf





Последний раз редактировалось: maggot-black (2014-12-31 14:05), всего редактировалось 1 раз

29-12-2014 22:17 Частоты Скачать торрент  

А по моему это бред!!!Типа высшая раса!!!pb.wtf



    Дорогой пользователь! Огромная просьба, поблагодарите релизера, оцените раздачу и оставьте свои комментарий, если Вы скачали Частоты через торрент бесплатно! Внесите свою лепту в развитие PiratBit!
    Комментировать посты могут только пользователи прошедшие не сложную регистрацию
    Показать сообщения:    

    Частоты через торрент
    Скачать бесплатно Частоты
    Частоты скачать торрент
    Частоты смотреть онлайн
    Cкачать фильм Частоты бесплатно
    Частоты скачать торрент в хорошем качестве
    Частоты смотреть онлайн бесплатно в хорошем качестве


    Вы не можете начинать темы
    Вы не можете отвечать на сообщения
    Вы не можете редактировать свои сообщения
    Вы не можете удалять свои сообщения
    Вы не можете голосовать в опросах
    Вы не можете прикреплять файлы к сообщениям
    Вы можете скачивать файлы