Доктор Стрэндж

Лицензия

Добыча

Дубляж

Уэнсдэй

1 сезон

Тор

Дубляж

В эфире

Дубляж

Там, где раки поют

MVO

Властелин колец

1 сезон

Deluxe

pack

Рекомендуем

30

Пиратка

ВАЖНО

ВАЖНО

Ghostwire

Пиратка

jed

RePack

nioh2

RePack

RDR2

RePack

NEED FOR SPEED™ PAYBACK

RePack

скачать торрент

Кинопоиск HD

Острые козырьки 6 сезон

6 сезон

FAR CRY 6

RePack

скачать торрент

Лицензия

скачать торрент

MVO

1

1 сезон

скачать торрент

1 сезон

скачать торрент

Лицензия

  

Общак / The Drop (Михаэль Р. Роскам ) [2014, драма, криминал, BDRip 720p] Дублированный [лицензия]

Общак через торрент pb.wtf

Размер: 5.75 GB | Добавлен: 7 лет 11 мес. назад | Торрент скачан:330 раз
Смотреть онлайн | Скачать   

29-12-2014 23:24 Общак Скачать торрент  

Общак / The Drop
  • Год выпуска: 2014
  • Производство: США
  • Жанр: драма, криминал
  • Длительность: 01:46:44
  • Субтитры: нет
    Перевод: Дублированный [лицензия]
    Режиссер: Михаэль Р. Роскам
    В ролях: Том Харди, Нуми Рапас, Джеймс Гандольфини, Маттиас Шонартс, Джон Ортис, Элизабет Родригес, Майкл Аронов, Морган Спектор, Майкл Эспер, Росс Бикелл
    Боб Сагиновски оказывается в центре ограбления, из-за расследования которого может всплыть прошлое района, когда друзья, семьи и заклятые враги - все работали вместе, чтобы выжить......


  • Качество видео: BDRip 720p
  • Формат: MKV
  • Видео кодек: AVC
  • Аудио кодек: AC3, DTS
  • Видео: 1280 x 536 (2.388) at 23.976 fps AVC at 5815 Кбит/сек
  • Аудио1: Русский AC3, 6 ch, 384 Кбит/с 48,0 КГц
  • Аудио2: английский DTS, 6 ch, 1510 Кбит/c 48,0 КГц
    Общее
    Уникальный идентификатор : 210896944508449620312562509273334761648 (0x9EA94628DA3D3E32A58648EF1A5B48B0)
    Полное имя : E:\Torrents\0bshak.2014.D.BDRip.720p.mkv
    Формат : Matroska
    Версия формата : Version 4 / Version 2
    Размер файла : 5,75 Гбайт
    Продолжительность : 1 ч. 46 м.
    Общий поток : 7709 Кбит/сек
    Дата кодирования : UTC 2014-12-29 20:57:17
    Программа кодирования : mkvmerge v6.9.1 ('Blue Panther') 64bit built on Apr 18 2014 18:23:38
    Библиотека кодирования : libebml v1.3.0 + libmatroska v1.4.1

    Видео
    Идентификатор : 1
    Формат : AVC
    Формат/Информация : Advanced Video Codec
    Профиль формата : [email protected]
    Параметр CABAC формата : Да
    Параметр ReFrames формата : 5 кадров
    Идентификатор кодека : V_MPEG4/ISO/AVC
    Продолжительность : 1 ч. 46 м.
    Битрейт : 5815 Кбит/сек
    Ширина : 1280 пикселей
    Высота : 536 пикселей
    Соотношение сторон : 2,40:1
    Режим частоты кадров : Постоянный
    Частота кадров : 23,976 кадра/сек
    Цветовое пространство : YUV
    Субдискретизация насыщенности : 4:2:0
    Битовая глубина : 8 бит
    Тип развёртки : Прогрессивная
    Бит/(Пиксели*Кадры) : 0.354
    Размер потока : 4,22 Гбайт (73%)
    Библиотека кодирования : x264 core 142 r2479 dd79a61
    Настройки программы : cabac=1 / ref=5 / deblock=1:0:0 / analyse=0x3:0x133 / me=umh / subme=7 / psy=1 / psy_rd=1.00:0.00 / mixed_ref=1 / me_range=16 / chroma_me=1 / trellis=1 / 8x8dct=1 / cqm=0 / deadzone=21,11 / fast_pskip=0 / chroma_qp_offset=-2 / threads=18 / lookahead_threads=3 / sliced_threads=0 / nr=0 / decimate=1 / interlaced=0 / bluray_compat=0 / constrained_intra=0 / bframes=3 / b_pyramid=2 / b_adapt=1 / b_bias=0 / direct=1 / weightb=1 / open_gop=0 / weightp=2 / keyint=250 / keyint_min=23 / scenecut=40 / intra_refresh=0 / rc_lookahead=40 / rc=2pass / mbtree=1 / bitrate=5815 / ratetol=1.0 / qcomp=0.60 / qpmin=0 / qpmax=69 / qpstep=4 / cplxblur=20.0 / qblur=0.5 / ip_ratio=1.40 / aq=1:1.00
    Язык : English
    Default : Да
    Forced : Нет

    Аудио #1
    Идентификатор : 2
    Формат : AC-3
    Формат/Информация : Audio Coding 3
    Расширение режима : CM (complete main)
    Параметр Endianness формата : Big
    Идентификатор кодека : A_AC3
    Продолжительность : 1 ч. 46 м.
    Вид битрейта : Постоянный
    Битрейт : 384 Кбит/сек
    Каналы : 6 каналов
    Расположение каналов : Front: L C R, Side: L R, LFE
    Частота : 48,0 КГц
    Битовая глубина : 16 бит
    Метод сжатия : С потерями
    Задержка видео : 1 с. 422 мс.
    Размер потока : 293 Мбайт (5%)
    Язык : Russian
    Default : Да
    Forced : Нет

    Аудио #2
    Идентификатор : 3
    Формат : DTS
    Формат/Информация : Digital Theater Systems
    Режим : 16
    Параметр Endianness формата : Big
    Идентификатор кодека : A_DTS
    Продолжительность : 1 ч. 46 м.
    Вид битрейта : Постоянный
    Битрейт : 1509 Кбит/сек
    Каналы : 6 каналов
    Расположение каналов : Front: L C R, Side: L R, LFE
    Частота : 48,0 КГц
    Битовая глубина : 24 бит
    Метод сжатия : С потерями
    Размер потока : 1,13 Гбайт (20%)
    Язык : English
    Default : Нет
    Forced : Нет

    Меню
    00:00:00.000 : en:00:00:00.000
    00:02:25.354 : en:00:02:25.354
    00:05:59.859 : en:00:05:59.859
    00:08:09.155 : en:00:08:09.155
    00:11:34.777 : en:00:11:34.777
    00:13:48.745 : en:00:13:48.745
    00:17:28.923 : en:00:17:28.923
    00:21:37.213 : en:00:21:37.213
    00:25:40.831 : en:00:25:40.831
    00:27:53.463 : en:00:27:53.463
    00:32:02.337 : en:00:32:02.337
    00:36:19.552 : en:00:36:19.552
    00:38:15.752 : en:00:38:15.752
    00:40:35.141 : en:00:40:35.141
    00:44:05.476 : en:00:44:05.476
    00:46:47.471 : en:00:46:47.471
    00:48:42.711 : en:00:48:42.711
    00:52:50.584 : en:00:52:50.584
    00:56:28.176 : en:00:56:28.176
    01:01:40.530 : en:01:01:40.530
    01:05:43.106 : en:01:05:43.106
    01:07:36.803 : en:01:07:36.803
    01:11:13.519 : en:01:11:13.519
    01:12:32.598 : en:01:12:32.598
    01:15:09.505 : en:01:15:09.505
    01:21:11.742 : en:01:21:11.742
    01:24:10.087 : en:01:24:10.087
    01:28:27.260 : en:01:28:27.260
    01:30:51.404 : en:01:30:51.404
    01:34:54.480 : en:01:34:54.480
    01:39:00.893 : en:01:39:00.893
    01:41:16.237 : en:01:41:16.237

    [/code]



  • Скачать Общак через торрент http://i64.fastpic.ru/big/2014/1224/7a/5951cd3e65d38e7b5e50d567ce380f7a.png Скачать, смотреть онлайн Общак бесплантно в хорошем качестве В ролях: Том Харди, Нуми Рапас, Джеймс Гандольфини, Маттиас Шонартс, Джон Ортис, Элизабет Родригес, Майкл Аронов, Морган Спектор, Майкл ... 10 10 12
    Info! Золотая раздача, скачанное не засчитывается.
    Торрент: Зарегистрирован [2014-12-29 23:24] · скачан: 330 раз
    Статус: √ проверено
    Размер: 5.75 GB
    Как cкачать? Как скачать Общак через торрент | UTorrent

    % Раздел Тема Автор DL S | L
    Фильмы [HD 720p, 1080p] (Хороший звук DUB, MVO) [ 11.09 GB ] Общак / The Drop | AVO | 1080p Seedtank Скачать
    1 | 0
    Фильмы 2014 [DVDrip, WEB-DLRip, HDrip] [ 1.46 GB ] Общак / The Drop | iTunes | HDRip, Дубляж GEKADOL Скачать
    1 | 0
    Фильмы 2014 [DVDrip, WEB-DLRip, HDrip] [ 2.11 GB ] Общак / The Drop | Лицензия" | HDRip, Дубляж "Лицензия" coc900 Скачать
    1 | 0
    Фильмы 2014 [DVDrip, WEB-DLRip, HDrip] [ 1.46 GB ] Общак / The Drop | Лицензия | BDRip-AVC potroks Скачать
    1 | 0
    Фильмы 2014 [DVDrip, WEB-DLRip, HDrip] [ 2.56 GB ] Общак / The Drop | DUB | BDRip-AVC _denis_100 Скачать
    1 | 0
    Фильмы [HD 720p, 1080p] (Хороший звук DUB, MVO) [ 8.42 GB ] Общак / The Drop | DUB+AVO | 1080p _denis_100 Скачать
    1 | 0
    Фильмы 2014 [DVDrip, WEB-DLRip, HDrip] [ 2.18 GB ] Общак / The Drop | Лицензия | BDRip-AVC potroks Скачать
    1 | 0



    Последний раз редактировалось: Cталин (2014-12-30 10:27), всего редактировалось 1 раз

    28-11-2019 20:33  


    Отключить вcю реклaмy на сайте, в т.ч. и в плеере онлайн просмотра!

    30-12-2014 03:51 Общак Скачать торрент  

    Длительность: 01:46

    Поправь



    30-12-2014 10:29 Общак Скачать торрент  

    Intel_Core, поправил властью данной мне природой и Вороном, назначаю тебя куратором моих раздач



    30-12-2014 11:56 Общак Скачать торрент  

    haizenberg писал(а):

    Intel_Core, поправил властью данной мне природой и Вороном, назначаю тебя куратором моих раздач

    Ой ну я польщен



    31-12-2014 12:28 Общак Скачать торрент  

    Спасибо релизеруу и с наступающим его нг. А фильм классный ))



    01-01-2015 15:07 Общак Скачать торрент  

    Intel_Core,

    Destroyer, Спасибо большое и тебя с Новым Годом уже!
    и всех с праздником! :ng:



      Дорогой пользователь! Огромная просьба, поблагодарите релизера, оцените раздачу и оставьте свои комментарий, если Вы скачали Общак через торрент бесплатно!!
      Комментировать посты могут только пользователи прошедшие не сложную регистрацию
      Показать сообщения:    


      Общак через торрент
      Скачать бесплатно Общак
      Общак скачать торрент
      Общак смотреть онлайн
      Cкачать фильм Общак бесплатно
      Общак скачать торрент в хорошем качестве
      Общак смотреть онлайн бесплатно в хорошем качестве
      Вы не можете начинать темы
      Вы не можете отвечать на сообщения
      Вы не можете редактировать свои сообщения
      Вы не можете удалять свои сообщения
      Вы не можете голосовать в опросах
      Вы не можете прикреплять файлы к сообщениям
      Вы можете скачивать файлы
      Общак / The Drop [2014, драма, криминал, BDRip 720p] Дублированный [лицензия] смотреть онлайн, скачать торрент picoco.icu