2 сезон

iTunes

1 сезон

1

iTunes

iTunes

iTunes

1 сезон

RePack

30

ИГРА 18+

pack

ВАЖНО

!!Акция!!

Alien_RageХит недели

RePack

MK11
pack

Забери бонус

RePack

jed

!!Акция!!

Alien_Rage

RePack

fifa19

RePack

Assassins Creed: Odyssey

RePack

NEED FOR SPEED™ PAYBACK

4 сезон

9 сезон

Бесстыжие 9 сезон

Все сериалы

все сериалы на PB.wtf

RePack

FAR CRY 5
  

Маленькое привидение / Das kleine Gespenst (Ален Гспонер / Alain Gsponer) [2013, Германия, Швейцария, фэнтези, семейный, HDRip) VO [viktor_2838] pb.wtf

Маленькое привидение через торрент pb.wtf

Размер: 1.46 GB | Добавлен: 5 лет 10 мес. назад | Торрент скачан:116 раз
Скачать  

30-12-2014 06:51 Маленькое привидение Скачать торрент  

Маленькое привидение / Das kleine Gespenst


  • Год выпуска: 2013
  • Страна: Германия, Швейцария
  • Жанр: фэнтези, семейный
  • Продолжительность: 01:31:35
  • Перевод: Любительский (одноголосый) viktor_2838

  • Режиссер: Ален Гспонер / Alain Gsponer
  • В ролях:

    Йонас Холденриедер (Karl), Emily Kusche (Marie), Нико Хартунг (Hannes), Херберт Кнауп (Uhrmachermeister Zifferle), Беттина Стуки (Lehrerin Thalmeyer), Уве Оксенкнехт (Der Bürgermeister / General Torsten Torstenson), Карлос Рихтер (Peter), Штефан Мерки (Hauptbrandmeister), Айкют Каячик (Burgverwalter), Алёша Стэйделманн (Polizei-Hauptmann), Тилль Валентин Винтер (Rudolf), Юдит Розмайр (Gräfin)

  • Описание:
    Живущее в старинном замке Ойленштайн маленькое привидение мечтает увидеть мир при дневном свете. Как это сделать - никто не знает. Однажды во время ночной экскурсии по замку он знакомится со школьником Карлом. Тот рассказывает о неожиданной встрече, но ему не верят даже лучшие друзья Мари и Хайнес.
    Ночное происшествие не проходит без последствий. В следующий раз маленькое привидение просыпается вовсе не в полночь, а средь бела дня. При первом контакте с солнечным светом призрак вместо белого неожиданно становится полностью чёрным. Появление чёрного привидения вызывает настоящий хаос в городе. Помочь ему могут только Карл и его друзья.
  • Рейтинг:



  • Качество: HDRip
  • Формат: :AVI
  • Видео кодек: XviD
  • Аудио кодек: AC3
  • Видео: 720x400 (16:9), 1852 kbps, 25 fps, 0,257 bpp
  • Аудио №1: 2.0 / 48 kHz / 192 kbps / 16 bit
  • Аудио №2: 2.0 / 48 kHz / 224 kbps / 16 bit
  • Релиз от: GEKADOL

    Код:

    General
    Complete name                            : D:\Фильмы\Das kleine Gespenst (2013) HDRip\Das kleine Gespenst (2013) HDRip.avi
    Format                                   : AVI
    Format/Info                              : Audio Video Interleave
    Format profile                           : OpenDML
    Format settings                          : rec
    File size                                : 1.46 GiB
    Duration                                 : 1h 31mn
    Overall bit rate                         : 2 276 Kbps
    Writing application                      : AVI-Mux GUI 1.17.8.3, Feb 16 201019:42:50

    Video
    ID                                       : 0
    Format                                   : MPEG-4 Visual
    Format profile                           : Advanced Simple@L5
    Format settings, BVOP                    : No
    Format settings, QPel                    : No
    Format settings, GMC                     : No warppoints
    Format settings, Matrix                  : Default (MPEG)
    Codec ID                                 : XVID
    Codec ID/Hint                            : XviD
    Duration                                 : 1h 31mn
    Bit rate                                 : 1 853 Kbps
    Width                                    : 720 pixels
    Height                                   : 400 pixels
    Display aspect ratio                     : 16:9
    Frame rate                               : 25.000 fps
    Color space                              : YUV
    Chroma subsampling                       : 4:2:0
    Bit depth                                : 8 bits
    Scan type                                : Progressive
    Compression mode                         : Lossy
    Bits/(Pixel*Frame)                       : 0.257
    Stream size                              : 1.19 GiB (81%)
    Writing library                          : XviD 62

    Audio #1
    ID                                       : 1
    Format                                   : AC-3
    Format/Info                              : Audio Coding 3
    Mode extension                           : CM (complete main)
    Codec ID                                 : 2000
    Duration                                 : 1h 31mn
    Bit rate mode                            : Constant
    Bit rate                                 : 192 Kbps
    Channel(s)                               : 2 channels
    Channel positions                        : Front: L R
    Sampling rate                            : 48.0 KHz
    Bit depth                                : 16 bits
    Compression mode                         : Lossy
    Stream size                              : 126 MiB (8%)
    Alignment                                : Aligned on interleaves
    Interleave, duration                     : 64 ms (1.60 video frames)
    Interleave, preload duration             : 192 ms
    Title                                    : Rus_125

    Audio #2
    ID                                       : 2
    Format                                   : AC-3
    Format/Info                              : Audio Coding 3
    Mode extension                           : CM (complete main)
    Codec ID                                 : 2000
    Duration                                 : 1h 31mn
    Bit rate mode                            : Constant
    Bit rate                                 : 224 Kbps
    Channel(s)                               : 2 channels
    Channel positions                        : Front: L R
    Sampling rate                            : 48.0 KHz
    Bit depth                                : 16 bits
    Compression mode                         : Lossy
    Stream size                              : 147 MiB (10%)
    Alignment                                : Aligned on interleaves
    Interleave, duration                     : 64 ms (1.60 video frames)
    Interleave, preload duration             : 192 ms
    Title                                    : Ger_146




    Скриншоты:



    pb.wtf



  • Скачать Маленькое привидение через торрент http://i63.fastpic.ru/big/2014/1230/80/5c7db6d8966f9609d42d2d97e8e5cd80.jpg Скачать фильм Маленькое привидение через торрент бесплантно в хорошем качестве Описание: Живущее в старинном замке Ойленштайн маленькое привидение мечтает увидеть мир при дневном свете. Как это сделать - никто не ... 10 10 3
    Торрент: Зарегистрирован [2014-12-30 06:51] · скачан: 116 раз
    Статус: T временная
    Размер: 1.46 GB
    Как cкачать? Как скачать Маленькое привидение через торрент | qTorrent

    28-11-2019 20:33  

    Отключить всю рекламу на сайте

      Дорогой пользователь! Огромная просьба, поблагодарите релизера, оцените раздачу и оставьте свои комментарий, если Вы скачали Маленькое привидение через торрент бесплатно! Внесите свою лепту в развитие PiratBit!
      Комментировать посты могут только пользователи прошедшие не сложную регистрацию
      Показать сообщения:    

      Маленькое привидение через торрент
      Скачать бесплатно Маленькое привидение
      Маленькое привидение скачать торрент
      Маленькое привидение смотреть онлайн
      Cкачать фильм Маленькое привидение бесплатно
      Маленькое привидение скачать торрент в хорошем качестве
      Маленькое привидение смотреть онлайн бесплатно в хорошем качестве


      Вы не можете начинать темы
      Вы не можете отвечать на сообщения
      Вы не можете редактировать свои сообщения
      Вы не можете удалять свои сообщения
      Вы не можете голосовать в опросах
      Вы не можете прикреплять файлы к сообщениям
      Вы можете скачивать файлы