2 сезон

iTunes

1 сезон

1

iTunes

iTunes

iTunes

1 сезон

RePack

30

ИГРА 18+

pack

ВАЖНО

!!Акция!!

Alien_RageХит недели

RePack

MK11
pack

Забери бонус

RePack

jed

!!Акция!!

Alien_Rage

RePack

fifa19

RePack

Assassins Creed: Odyssey

RePack

NEED FOR SPEED™ PAYBACK

4 сезон

9 сезон

Бесстыжие 9 сезон

Все сериалы

все сериалы на PB.wtf

RePack

FAR CRY 5
  

Обнажённый поцелуй / The Naked Kiss (Сэмюэл Фуллер) [1964, драма, криминал, BDRip 1080p] AVO pb.wtf

Обнажённый поцелуй через торрент pb.wtf

Размер: 11.99 GB | Добавлен: 5 лет 10 мес. назад | Торрент скачан:6 раз
Скачать  

30-12-2014 08:01 Обнажённый поцелуй Скачать торрент  

Обнажённый поцелуй / The Naked Kiss

Год выпуска: 1964
Страна: США
Жанр: драма, криминал
Продолжительность: 01:30:51
Перевод: авторский
Субтитры: русские, английские

Режиссёр: Сэмюэл Фуллер

В ролях: Констанс Тауэрс, Энтони Айсли, Майкл Данте, Вирджиния Грей, Пэтси Келли, Мари Деверо, Карен Конрад, Линда Френсис, Билл Сэмпсон, Шила Минтц

Описание: Прекрасный фильм Фуллера о проститутке, пытающейся начать честную жизнь, как бы специально был задуман для актрисы Констанс Тауэрс. Она сыграла потрясающе. Тема проституции и сексуальных извращений развивается с осторожностью. Действие разворачивается быстро: проститутка Келли ссорится со своим мошенником-сутенером, который наголо обривает ей голову, после чего она попадает в кутузку, где с готовностью удовлетворяет местного полицейского Гриффа; далее, она отказывается рожать в доме для лиц своей профессии, где заведует прожжённая Вирджиния Грей, а идёт в центр реабилитации детей-калек под крылышко героини Пэтси Келли...



Качество: BDRip 1080p Сравнение с исходником
Формат: MKV
Видео кодек: H.264
Аудио кодек: AC3
Видео: 18.2 Mbps, 1920x1080, 23.976 кадра/с, 0.366 bpp
Аудио 1: русский, AC3, 128 kbps, 1 ch, 48 kHz [авторский, Сергей Кузнецов]
Аудио 2: английский, AC3, 192 kbps, 1 ch, 48 kHz [оригинал]

Имеются неименованные главы/чаптеры.
Общее
Уникальный идентификатор : 171754134804994791971433531342137479602 (0x8136A4A41F9EE1EB8D817DF979C651B2)
Полное имя : D:VideoObnagennyj poceluj.1964.BDRip.1080p.mkv
Формат : Matroska
Версия формата : Version 4 / Version 2
Размер файла : 12,0 Гбайт
Продолжительность : 1 ч. 30 м.
Общий поток : 18,9 Мбит/сек
Дата кодирования : UTC 2014-12-30 03:11:10
Программа кодирования : mkvmerge v7.4.0 ('Circles') 64bit built on Dec 12 2014 12:19:56
Библиотека кодирования : libebml v1.3.0 + libmatroska v1.4.1
DURATION : 01:28:55.996000000
NUMBER_OF_FRAMES : 1104
NUMBER_OF_BYTES : 35470
_STATISTICS_WRITING_APP : mkvmerge v7.4.0 ('Circles') 64bit built on Dec 12 2014 12:19:56
_STATISTICS_WRITING_DATE_UTC : 2014-12-30 03:11:10
_STATISTICS_TAGS : BPS DURATION NUMBER_OF_FRAMES NUMBER_OF_BYTES

Видео
Идентификатор : 1
Формат : AVC
Формат/Информация : Advanced Video Codec
Профиль формата : High@L4.1
Параметр CABAC формата : Да
Параметр ReFrames формата : 4 кадра
Идентификатор кодека : V_MPEG4/ISO/AVC
Продолжительность : 1 ч. 30 м.
Битрейт : 18,2 Мбит/сек
Ширина : 1920 пикселей
Высота : 1080 пикселей
Соотношение сторон : 16:9
Режим частоты кадров : Постоянный
Частота кадров : 23,976 кадра/сек
Цветовое пространство : YUV
Субдискретизация насыщенности : 4:2:0
Битовая глубина : 8 бит
Тип развёртки : Прогрессивная
Бит/(Пиксели*Кадры) : 0.366
Размер потока : 11,5 Гбайт (96%)
Заголовок : BDRip -- STarankov
Библиотека кодирования : x264 core 142 r2431 ac76440
Настройки программы : cabac=1 / ref=4 / deblock=1:-1:-1 / analyse=0x3:0x113 / me=umh / subme=10 / psy=1 / psy_rd=1.00:0.15 / mixed_ref=1 / me_range=32 / chroma_me=1 / trellis=2 / 8x8dct=1 / cqm=0 / deadzone=21,11 / fast_pskip=1 / chroma_qp_offset=-3 / threads=6 / lookahead_threads=1 / sliced_threads=0 / nr=0 / decimate=1 / interlaced=0 / bluray_compat=0 / constrained_intra=0 / bframes=8 / b_pyramid=2 / b_adapt=2 / b_bias=0 / direct=3 / weightb=1 / open_gop=0 / weightp=2 / keyint=230 / keyint_min=23 / scenecut=40 / intra_refresh=0 / rc_lookahead=40 / rc=crf / mbtree=0 / crf=18.4 / qcomp=0.60 / qpmin=0 / qpmax=69 / qpstep=4 / vbv_maxrate=40000 / vbv_bufsize=50000 / crf_max=0.0 / nal_hrd=none / filler=0 / ip_ratio=1.40 / pb_ratio=1.30 / aq=1:1.00
Язык : English
Default : Да
Forced : Нет
DURATION : 01:30:51.488000000
NUMBER_OF_FRAMES : 130705
NUMBER_OF_BYTES : 12651086155
_STATISTICS_WRITING_APP : mkvmerge v7.4.0 ('Circles') 64bit built on Dec 12 2014 12:19:56
_STATISTICS_WRITING_DATE_UTC : 2014-12-30 03:11:10
_STATISTICS_TAGS : BPS DURATION NUMBER_OF_FRAMES NUMBER_OF_BYTES

Аудио #1
Идентификатор : 2
Формат : AC-3
Формат/Информация : Audio Coding 3
Расширение режима : CM (complete main)
Параметр Endianness формата : Big
Идентификатор кодека : A_AC3
Продолжительность : 1 ч. 30 м.
Вид битрейта : Постоянный
Битрейт : 128 Кбит/сек
Каналы : 1 канал
Расположение каналов : Front: C
Частота : 48,0 КГц
Битовая глубина : 16 бит
Метод сжатия : С потерями
Размер потока : 83,2 Мбайт (1%)
Заголовок : AVO (Сергей Кузнецов)
Язык : Russian
Default : Да
Forced : Нет

Аудио #2
Идентификатор : 3
Формат : AC-3
Формат/Информация : Audio Coding 3
Расширение режима : CM (complete main)
Параметр Endianness формата : Big
Идентификатор кодека : A_AC3
Продолжительность : 1 ч. 30 м.
Вид битрейта : Постоянный
Битрейт : 192 Кбит/сек
Каналы : 1 канал
Расположение каналов : Front: C
Частота : 48,0 КГц
Битовая глубина : 16 бит
Метод сжатия : С потерями
Размер потока : 125 Мбайт (1%)
Заголовок : Original
Язык : English
Default : Нет
Forced : Нет

Текст #1
Идентификатор : 4
Формат : UTF-8
Идентификатор кодека : S_TEXT/UTF8
Идентификатор кодека/Информация : UTF-8 Plain Text
Заголовок : русский
Язык : Russian
Default : Нет
Forced : Нет

Текст #2
Идентификатор : 5
Формат : UTF-8
Идентификатор кодека : S_TEXT/UTF8
Идентификатор кодека/Информация : UTF-8 Plain Text
Заголовок : английский
Default : Нет
Forced : Нет

Меню
00:00:00.000 : en:00:00:00.000
00:04:10.375 : en:00:04:10.375
00:07:22.067 : en:00:07:22.067
00:13:35.189 : en:00:13:35.189
00:17:57.702 : en:00:17:57.702
00:20:30.771 : en:00:20:30.771
00:23:14.351 : en:00:23:14.351
00:26:56.698 : en:00:26:56.698
00:28:14.776 : en:00:28:14.776
00:34:12.342 : en:00:34:12.342
00:40:07.363 : en:00:40:07.363
00:47:59.001 : en:00:47:59.001
00:52:43.744 : en:00:52:43.744
00:55:10.307 : en:00:55:10.307
00:59:21.850 : en:00:59:21.850
01:03:37.689 : en:01:03:37.689
01:08:04.539 : en:01:08:04.539
01:13:58.893 : en:01:13:58.893
01:18:58.567 : en:01:18:58.567
01:27:44.593 : en:01:27:44.593
pb.wtf



Скачать Обнажённый поцелуй через торрент http://i68.fastpic.ru/big/2014/1230/6f/5f8f9e0216cf3c9ce2947fdb1842ea6f.jpg Скачать фильм Обнажённый поцелуй через торрент бесплантно в хорошем качестве Описание: Прекрасный фильм Фуллера о проститутке, пытающейся начать честную жизнь, как бы специально был задуман для актрисы Констанс ... 7.5 10 2
Info! Золотая раздача, скачанное не засчитывается.
Торрент: Зарегистрирован [2014-12-30 08:01] · скачан: 6 раз
Статус: √ проверено
Размер: 11.99 GB
Как cкачать? Как скачать Обнажённый поцелуй через торрент | qTorrent

% Раздел Тема Автор DL S | L
Фильмы с авторской озвучкой [ 6.02 GB ] Обнажённый поцелуй / The Naked Kiss [1964 BDRip 720p] AVO msltel Скачать
1 | 0

28-11-2019 20:33  

Отключить всю рекламу на сайте

    Дорогой пользователь! Огромная просьба, поблагодарите релизера, оцените раздачу и оставьте свои комментарий, если Вы скачали Обнажённый поцелуй через торрент бесплатно! Внесите свою лепту в развитие PiratBit!
    Комментировать посты могут только пользователи прошедшие не сложную регистрацию
    Показать сообщения:    

    Обнажённый поцелуй через торрент
    Скачать бесплатно Обнажённый поцелуй
    Обнажённый поцелуй скачать торрент
    Обнажённый поцелуй смотреть онлайн
    Cкачать фильм Обнажённый поцелуй бесплатно
    Обнажённый поцелуй скачать торрент в хорошем качестве
    Обнажённый поцелуй смотреть онлайн бесплатно в хорошем качестве


    Вы не можете начинать темы
    Вы не можете отвечать на сообщения
    Вы не можете редактировать свои сообщения
    Вы не можете удалять свои сообщения
    Вы не можете голосовать в опросах
    Вы не можете прикреплять файлы к сообщениям
    Вы можете скачивать файлы