Доктор Стрэндж

Лицензия

Добыча

Дубляж

Дом дракона

1 сезон

Тор

Дубляж

В эфире

Дубляж

Там, где раки поют

MVO

Властелин колец

1 сезон

GLOBAL

pack

Рекомендуем

30

Пиратка

ВАЖНО

ВАЖНО

Ghostwire

Пиратка

jed

RePack

nioh2

RePack

RDR2

RePack

NEED FOR SPEED™ PAYBACK

RePack

скачать торрент

Кинопоиск HD

Острые козырьки 6 сезон

6 сезон

FAR CRY 6

RePack

скачать торрент

Лицензия

скачать торрент

MVO

1

1 сезон

скачать торрент

1 сезон

скачать торрент

Лицензия

  

Пережить Рождество / Surviving Christmas (Майк Митчелл ) [2004, мелодрама, комедия, BDRip 720p, Дубляж, MVO, AVO]

Пережить Рождество через торрент pb.wtf

Размер: 4.37 GB | Добавлен: 7 лет 11 мес. назад | Торрент скачан:159 раз
Смотреть онлайн | Скачать   

30-12-2014 18:12 Пережить Рождество Скачать торрент  

Пережить Рождество / Surviving Christmas
«Share the warmth»


Год выпуска: 2004
Страна: США
Жанр: мелодрама, комедия
Продолжительность: 01:30:43
Перевод: Дублированный, Профессиональный многоголосый, Авторский (одноголосый)

Субтитры: русские (Full, R5), русские (Full, Tycoon), английские (Full SDH)
Режиссер: Майк Митчелл
В ролях: Бен Аффлек , Джеймс Гандольфини , Кристина Эпплгейт , Кэтрин О’Хара , Джош Цуккерман , Билл Мэйси , Дженнифер Моррисон , Удо Кир , Дэвид Селби , Стефани Фэраси , Стивен Рут , Сай Ричардсон
Описание::
Опостылевшая рутинная жизнь богача Дрю Лэтама приводит его на Рождество в пригородный дом своего детства. И даже тот факт, что дом заселён теперь другими людьми, не может испортить Дрю настроение. За солидное вознаграждение он предлагает семейке Валко на время стать его роднёй, и сам мечтает отметить праздник в их кругу. Вот только деньги кружат голову далеко не всем его новым родственникам, да и сами Валко, кажется, представляют собой редкую семейку психопатов...

Качество: BDRip 720p (исходник Blu-ray)
Контейнер (Расширение): MKV
Видео кодек: AVC
Аудио кодек: AC3
Видео: 1280x720 (16:9), 5170 Кбит/сек, 23,976 кадр/сек, 0,234 Бит/[Пиксели*Кадры]
Аудио №1: русский / AC3 / 5.1 / 48 kHz / 384 kbps / 16 bit |Профессиональный (полное дублирование), R5 |
Аудио №2: русский / AC3 / 5.1 / 48 kHz / 448 kbps / 16 bit |Профессиональный (многоголосый, закадровый), Tycoon|
Аудио №3: русский / AC3 / 5.1 / 48 kHz / 448 kbps / 16 bit |Авторский (одноголосый, закадровый), Сергей Визгунов|
Аудио №4: английский / AC3 / 5.1 / 48 kHz / 448 kbps / 16 bit
Навигация по главам(Чаптеры): естьАвтор рипа: Сообщество:

Код:

Format                                   : Matroska
Format version                           : Version 2
File size                                : 4.37 GiB
Duration                                 : 1h 30mn
Overall bit rate                         : 6 893 Kbps
Movie name                               : Perezhit' Rozhdestvo.(2004).BDRip.720p.[denis100]
Encoded date                             : UTC 2013-12-24 08:54:06
Writing application                      : mkvmerge v5.8.0 ('No Sleep / Pillow') built on Sep  2 2012 15:37:04
Writing library                          : libebml v1.2.3 + libmatroska v1.3.0

Video
ID                                       : 1
Format                                   : AVC
Format/Info                              : Advanced Video Codec
Format profile                           : [email protected]
Format settings, CABAC                   : Yes
Format settings, ReFrames                : 9 frames
Codec ID                                 : V_MPEG4/ISO/AVC
Duration                                 : 1h 30mn
Bit rate                                 : 5 170 Kbps
Width                                    : 1 280 pixels
Height                                   : 720 pixels
Display aspect ratio                     : 16:9
Frame rate                               : 23.976 fps
Color space                              : YUV
Chroma subsampling                       : 4:2:0
Bit depth                                : 8 bits
Scan type                                : Progressive
Bits/(Pixel*Frame)                       : 0.234
Stream size                              : 3.19 GiB (73%)
Title                                    : Perezhit' Rozhdestvo.(2004).BDRip.720p от denis100
Writing library                          : x264 core 140 r2377 1ca7bb9
Encoding settings                        : cabac=1 / ref=9 / deblock=1:-3:-3 / analyse=0x3:0x133 / me=umh / subme=11 / psy=1 / psy_rd=1.00:0.10 / mixed_ref=1 / me_range=32 / chroma_me=1 / trellis=2 / 8x8dct=1 / cqm=0 / deadzone=21,11 / fast_pskip=0 / chroma_qp_offset=-3 / threads=6 / lookahead_threads=1 / sliced_threads=0 / nr=0 / decimate=0 / interlaced=0 / bluray_compat=0 / constrained_intra=0 / bframes=6 / b_pyramid=2 / b_adapt=2 / b_bias=0 / direct=3 / weightb=1 / open_gop=0 / weightp=2 / keyint=240 / keyint_min=23 / scenecut=40 / intra_refresh=0 / rc=2pass / mbtree=0 / bitrate=5170 / ratetol=1.0 / qcomp=0.60 / qpmin=0 / qpmax=69 / qpstep=4 / cplxblur=20.0 / qblur=0.5 / ip_ratio=1.40 / pb_ratio=1.30 / aq=1:0.90
Language                                 : English
Default                                  : Yes
Forced                                   : No

Audio #1
ID                                       : 2
Format                                   : AC-3
Format/Info                              : Audio Coding 3
Mode extension                           : CM (complete main)
Codec ID                                 : A_AC3
Duration                                 : 1h 30mn
Bit rate mode                            : Constant
Bit rate                                 : 384 Kbps
Channel(s)                               : 6 channels
Channel positions                        : Front: L C R, Side: L R, LFE
Sampling rate                            : 48.0 KHz
Bit depth                                : 16 bits
Compression mode                         : Lossy
Stream size                              : 249 MiB (6%)
Title                                    : Профессиональный (полное дублирование), R5
Language                                 : Russian
Default                                  : Yes
Forced                                   : No

Audio #2
ID                                       : 3
Format                                   : AC-3
Format/Info                              : Audio Coding 3
Mode extension                           : CM (complete main)
Codec ID                                 : A_AC3
Duration                                 : 1h 30mn
Bit rate mode                            : Constant
Bit rate                                 : 448 Kbps
Channel(s)                               : 6 channels
Channel positions                        : Front: L C R, Side: L R, LFE
Sampling rate                            : 48.0 KHz
Bit depth                                : 16 bits
Compression mode                         : Lossy
Stream size                              : 291 MiB (6%)
Title                                    : Профессиональный (многоголосый, закадровый), Tycoon
Language                                 : Russian
Default                                  : No
Forced                                   : No

Audio #3
ID                                       : 4
Format                                   : AC-3
Format/Info                              : Audio Coding 3
Mode extension                           : CM (complete main)
Codec ID                                 : A_AC3
Duration                                 : 1h 30mn
Bit rate mode                            : Constant
Bit rate                                 : 448 Kbps
Channel(s)                               : 6 channels
Channel positions                        : Front: L C R, Side: L R, LFE
Sampling rate                            : 48.0 KHz
Bit depth                                : 16 bits
Compression mode                         : Lossy
Stream size                              : 291 MiB (6%)
Title                                    : Авторский (одноголосый, закадровый), Сергей Визгунов
Language                                 : Russian
Default                                  : No
Forced                                   : No

Audio #4
ID                                       : 5
Format                                   : AC-3
Format/Info                              : Audio Coding 3
Mode extension                           : CM (complete main)
Codec ID                                 : A_AC3
Duration                                 : 1h 30mn
Bit rate mode                            : Constant
Bit rate                                 : 448 Kbps
Channel(s)                               : 6 channels
Channel positions                        : Front: L C R, Side: L R, LFE
Sampling rate                            : 48.0 KHz
Bit depth                                : 16 bits
Compression mode                         : Lossy
Stream size                              : 291 MiB (6%)
Title                                    : Оригинал (Английский)
Language                                 : English
Default                                  : No
Forced                                   : No

Text #1
ID                                       : 6
Format                                   : UTF-8
Codec ID                                 : S_TEXT/UTF8
Codec ID/Info                            : UTF-8 Plain Text
Title                                    : Full, R5
Language                                 : Russian
Default                                  : No
Forced                                   : No

Text #2
ID                                       : 7
Format                                   : UTF-8
Codec ID                                 : S_TEXT/UTF8
Codec ID/Info                            : UTF-8 Plain Text
Title                                    : Full, Tycoon
Language                                 : Russian
Default                                  : No
Forced                                   : No

Text #3
ID                                       : 8
Format                                   : UTF-8
Codec ID                                 : S_TEXT/UTF8
Codec ID/Info                            : UTF-8 Plain Text
Title                                    : Full SDH
Language                                 : English
Default                                  : No
Forced                                   : No

Menu
00:00:00.000                             : en:Chapter 01. Christmas in the City
00:02:39.576                             : en:Chapter 02. A Lonely Christmas
00:08:43.356                             : en:Chapter 03. Drew's Grievances
00:13:43.113                             : en:Chapter 04. My Childhood Home
00:17:23.292                             : en:Chapter 05. The Christmas Contract
00:19:53.817                             : en:Chapter 06. Make Yourself at Home
00:23:01.213                             : en:Chapter 07. Tree Shopping
00:27:38.156                             : en:Chapter 08. Good Times in the Snow
00:29:22.510                             : en:Chapter 09. Role-Playing
00:34:19.807                             : en:Chapter 10. A Great Day for Shopping
00:36:40.907                             : en:Chapter 11. Problems in the Family
00:43:41.618                             : en:Chapter 12. Risking Permanent Paralysis
00:47:03.654                             : en:Chapter 13. Tender Moments
00:50:31.445                             : en:Chapter 14. Yuletide Glee
00:52:46.580                             : en:Chapter 15. The Ice Palace
00:56:19.834                             : en:Chapter 16. Girl Trouble
01:00:04.726                             : en:Chapter 17. Getting Acquainted
01:05:16.871                             : en:Chapter 18. Sis Is Home!
01:08:14.840                             : en:Chapter 19. Incestuous Overtones
01:11:51.265                             : en:Chapter 20. Drew Comes Clean
01:15:45.123                             : en:Chapter 21. An Unexpected Visitor
01:18:35.252                             : en:Chapter 22. Everybody Get Together
01:21:40.061                             : en:Chapter 23. A True Holiday Ending
01:25:06.309                             : en:Chapter 24. Credits
01:30:42.687                             : en:Chapter 25.




Скачать Пережить Рождество через торрент http://i67.fastpic.ru/big/2014/1230/b1/2892706b33c081f19c829c26425488b1.png Скачать, смотреть онлайн Пережить Рождество бесплантно в хорошем качестве Описание::Опостылевшая рутинная жизнь богача Дрю Лэтама приводит его на Рождество в пригородный дом своего детства. И даже тот факт, что ... 10 10 9
Info! Золотая раздача, скачанное не засчитывается.
Торрент: Зарегистрирован [2014-12-30 18:12] · скачан: 159 раз
Статус: √ проверено
Размер: 4.37 GB
Как cкачать? Как скачать Пережить Рождество через торрент | UTorrent

% Раздел Тема Автор DL S | L
Фильмы [HD 720p, 1080p] (Хороший звук DUB, MVO) [ 13.63 GB ] Пережить Рождество / Surviving Christmas / 2004 | DUB | 1080p msltel Скачать
1 | 0
Фильмы [HD 720p, 1080p] (Хороший звук DUB, MVO) [ 5.34 GB ] Пережить Рождество / Surviving Christmas / 2004 | DUB | 720p msltel Скачать
1 | 0
Фильмы 2001-2005 [ 2.19 GB ] Пережить Рождество / Surviving Christmas | | BDRip-AVC potroks Скачать
1 | 0
Фильмы 2001-2005 [ 1.46 GB ] Пережить Рождество / Surviving Christmas | | HDRip, лицензия jingles Скачать
1 | 0

28-11-2019 20:33  


Отключить вcю реклaмy на сайте, в т.ч. и в плеере онлайн просмотра!

    Дорогой пользователь! Огромная просьба, поблагодарите релизера, оцените раздачу и оставьте свои комментарий, если Вы скачали Пережить Рождество через торрент бесплатно!!
    Комментировать посты могут только пользователи прошедшие не сложную регистрацию
    Показать сообщения:    


    Пережить Рождество через торрент
    Скачать бесплатно Пережить Рождество
    Пережить Рождество скачать торрент
    Пережить Рождество смотреть онлайн
    Cкачать фильм Пережить Рождество бесплатно
    Пережить Рождество скачать торрент в хорошем качестве
    Пережить Рождество смотреть онлайн бесплатно в хорошем качестве
    Вы не можете начинать темы
    Вы не можете отвечать на сообщения
    Вы не можете редактировать свои сообщения
    Вы не можете удалять свои сообщения
    Вы не можете голосовать в опросах
    Вы не можете прикреплять файлы к сообщениям
    Вы можете скачивать файлы
    Пережить Рождество / Surviving Christmas [2004, мелодрама, комедия, BDRip 720p, Дубляж, MVO, AVO] смотреть онлайн, скачать торрент picoco.icu