Ссылка на приватное зеркало нашего сайта всего за 1$. Внимание количество ограничено!!!

2 сезон

iTunes

iTunes

1

iTunes

iTunes

iTunes

WEBRip

iTunes

30
pack

Вам бонус

ВАЖНО

!!Акция!!

Alien_RageХит недели

RePack

Horizon Zero Dawn

ИГРА 18+

pack

RePack

jed

!!Акция!!

Alien_Rage

RePack

fifa19

RePack

Assassins Creed: Odyssey

RePack

NEED FOR SPEED™ PAYBACK

4 сезон

9 сезон

Бесстыжие 9 сезон

Все сериалы

все сериалы на PB.wtf

RePack

FAR CRY 5
  

Рэй Донован / Ray Donovan / Сезон: 2/ Серии: 1-12 из 12 (Такер Гейтс, Майкл Аппендаль, Дэниэл Эттиэс) [2014, США, драма, криминал, HDTVRip 720p] MVO [Amedia, NewStudio] + DVO [Кубик в Кубе] + Subs pb.wtf

Рэй Донован через торрент pb.wtf

Размер: 27.72 GB | Добавлен: 5 лет 8 мес. назад | Торрент скачан:98 раз
Скачать  

30-12-2014 20:43 Рэй Донован Скачать торрент  

Рэй Донован / Ray Donovan
«No one can ever know...»
Год выпуска: 2014
Страна: США
Жанр: драма, криминал
Продолжительность: 00:52:24
Перевод:
|Профессиональный (двухголосый, закадровый) Кубик в Кубе
Профессиональный (многоголосый, закадровый) NewStudio
Профессиональный (многоголосый, закадровый) Амедиа|

Субтитры: русские [Amedia], английские (Full, SDH)

Режиссер: Такер Гейтс / Tucker Gates, Майкл Аппендаль / Michael Uppendahl, Дэниэл Эттиэс / Daniel Attias
В ролях: Лив Шрайбер (Ray Donovan), Паула Малкомсон (Abby Donovan), Эдди Марсан (Terry Donovan), Дэш Майок (Bunchy Donovan), Джон Войт (Mickey Donovan), Девон Бэгби (Conor Donovan), Стивен Бауэр (Avi), Кэтрин Менниг (Lena), Пуч Холл (Daryll), Кэррис Дорси (Bridget Donovan), Октавиус Дж. Джонсон (Marvin Gaye Washington), Уильям Стэнфорд Дэвис (Potato Pie)
Описание:
Это Рей. Он, как тарантиновский мистер Вулф, решает проблемы. Проблемы у калифорнийских звезд и прожигателей жизни бывают разные, то надо устроить небольшой пиар-скандал, то спрятать труп - но решать их все равно проще, чем свои семейные. Смесь гангстерской саги и постмодернистского боевика с участием грандов большого кино Джона Войта, Джеймса Вудса, Эллиота Гулда и Розанны Аркетт. Если вы скучаете по Декстеру - Рей Донован вам его заменит.

Рейтинг

Качество: HDTVRip 720p
Формат: MKV
Видео кодек: AVC
Аудио кодек: AC3
Видео: AVC, 1278x720 (16:9), 5563 kbps, 23,976 fps, 0,252 bpp
Аудио №1: русский / AC3 / 5.1 / 48 kHz / 384 kbps / 16 bit |Многоголосый закадровый, Новамедиа по заказу канала Amedia|
Аудио №2: русский / AC3 / 5.1 / 48 kHz / 384 kbps / 16 bit |Двухголосый закадровый, Кубик в Кубе|
Аудио №3: русский / AC3 / 5.1 / 48 kHz / 384 kbps / 16 bit |Многоголосый закадровый, NewStudio|
Аудио №4: английский / AC3 / 5.1 / 48 kHz / 384 kbps / 16 bit
Оформление: Messa-fan
Релиз: & by messafan

Цитата:

  • Запись дорожки №1 - BS666
  • Дорожка №2 получена наложением чистого голоса на центр декодированного оригинального AC3 (благодарим за голоса ЛП).
  • Работа со звуком и субтитрами messafan
  • В дорожках №2 и №3 присутствует ненормативная лексика.

Encode by EbP ;)

Код:

General
Unique ID                                : 247081935234585134694306454843606100329 (0xB9E23FF17C93A4B7B35DBB8386AEE969)
Complete name                            : Ray.Donovan.S02.720p.HDTV.3xRus.Eng.HDCLUB\Ray.Donovan.S02E01.720p.HDTV.3xRus.Eng.HDCLUB.mkv
Format                                   : Matroska
Format version                           : Version 4 / Version 2
File size                                : 2.65 GiB
Duration                                 : 52mn 24s
Overall bit rate                         : 7 244 Kbps
Movie name                               : Ray Donovan s02e01 "Yo Soy Capitan" release by messafan for HDCLUB
Encoded date                             : UTC 2014-12-20 17:42:38
Writing application                      : mkvmerge v6.7.0 ('Back to the Ground') 64bit built on Jan  8 2014 15:10:52
Writing library                          : libebml v1.3.0 + libmatroska v1.4.1

Video
ID                                       : 1
Format                                   : AVC
Format/Info                              : Advanced Video Codec
Format profile                           : High@L4.1
Format settings, CABAC                   : Yes
Format settings, ReFrames                : 9 frames
Codec ID                                 : V_MPEG4/ISO/AVC
Duration                                 : 52mn 24s
Bit rate                                 : 5 564 Kbps
Width                                    : 1 278 pixels
Height                                   : 720 pixels
Display aspect ratio                     : 16:9
Frame rate                               : 23.976 fps
Color space                              : YUV
Chroma subsampling                       : 4:2:0
Bit depth                                : 8 bits
Scan type                                : Progressive
Bits/(Pixel*Frame)                       : 0.252
Stream size                              : 2.04 GiB (77%)
Writing library                          : x264 core 142 r2453kMod ea0ca51
Encoding settings                        : cabac=1 / ref=9 / deblock=1:-2:-1 / analyse=0x3:0x133 / me=umh / subme=10 / psy=1 / fade_compensate=0.00 / psy_rd=1.05:0.00 / mixed_ref=1 / me_range=16 / chroma_me=1 / trellis=2 / 8x8dct=1 / cqm=0 / deadzone=21,11 / fast_pskip=0 / chroma_qp_offset=-2 / threads=12 / lookahead_threads=2 / sliced_threads=0 / nr=0 / decimate=0 / interlaced=0 / bluray_compat=0 / constrained_intra=0 / fgo=0 / bframes=9 / b_pyramid=2 / b_adapt=2 / b_bias=0 / direct=3 / weightb=1 / open_gop=0 / weightp=2 / keyint=250 / keyint_min=23 / scenecut=40 / intra_refresh=0 / rc=crf / mbtree=0 / crf=15.5000 / qcomp=0.60 / qpmin=0 / qpmax=69 / qpstep=4 / ip_ratio=1.40 / pb_ratio=1.30 / aq=3:0.80
Language                                 : English
Default                                  : Yes
Forced                                   : No

Audio #1
ID                                       : 2
Format                                   : AC-3
Format/Info                              : Audio Coding 3
Mode extension                           : CM (complete main)
Codec ID                                 : A_AC3
Duration                                 : 52mn 24s
Bit rate mode                            : Constant
Bit rate                                 : 384 Kbps
Channel(s)                               : 6 channels
Channel positions                        : Front: L C R, Side: L R, LFE
Sampling rate                            : 48.0 KHz
Bit depth                                : 16 bits
Compression mode                         : Lossy
Stream size                              : 144 MiB (5%)
Title                                    : Amedia AC3 5.1 @ 384 Kbps
Language                                 : Russian
Default                                  : Yes
Forced                                   : No

Audio #2
ID                                       : 3
Format                                   : AC-3
Format/Info                              : Audio Coding 3
Mode extension                           : CM (complete main)
Codec ID                                 : A_AC3
Duration                                 : 52mn 24s
Bit rate mode                            : Constant
Bit rate                                 : 384 Kbps
Channel(s)                               : 6 channels
Channel positions                        : Front: L C R, Side: L R, LFE
Sampling rate                            : 48.0 KHz
Bit depth                                : 16 bits
Compression mode                         : Lossy
Stream size                              : 144 MiB (5%)
Title                                    : KvK AC3 5.1 @ 384 Kbps
Language                                 : Russian
Default                                  : No
Forced                                   : No

Audio #3
ID                                       : 4
Format                                   : AC-3
Format/Info                              : Audio Coding 3
Mode extension                           : CM (complete main)
Codec ID                                 : A_AC3
Duration                                 : 52mn 24s
Bit rate mode                            : Constant
Bit rate                                 : 384 Kbps
Channel(s)                               : 6 channels
Channel positions                        : Front: L C R, Side: L R, LFE
Sampling rate                            : 48.0 KHz
Bit depth                                : 16 bits
Compression mode                         : Lossy
Stream size                              : 144 MiB (5%)
Title                                    : NewStudio AC3 5.1 @ 384 Kbps
Language                                 : Russian
Default                                  : No
Forced                                   : No

Audio #4
ID                                       : 5
Format                                   : AC-3
Format/Info                              : Audio Coding 3
Mode extension                           : CM (complete main)
Codec ID                                 : A_AC3
Duration                                 : 52mn 24s
Bit rate mode                            : Constant
Bit rate                                 : 384 Kbps
Channel(s)                               : 6 channels
Channel positions                        : Front: L C R, Side: L R, LFE
Sampling rate                            : 48.0 KHz
Bit depth                                : 16 bits
Compression mode                         : Lossy
Stream size                              : 144 MiB (5%)
Title                                    : English AC3 5.1 @ 384 Kbps
Language                                 : English
Default                                  : No
Forced                                   : No

Text #1
ID                                       : 6
Format                                   : UTF-8
Codec ID                                 : S_TEXT/UTF8
Codec ID/Info                            : UTF-8 Plain Text
Title                                    : Rus Sub [Amedia]
Language                                 : Russian
Default                                  : No
Forced                                   : No

Text #2
ID                                       : 7
Format                                   : UTF-8
Codec ID                                 : S_TEXT/UTF8
Codec ID/Info                            : UTF-8 Plain Text
Title                                    : Full
Language                                 : English
Default                                  : No
Forced                                   : No

Text #3
ID                                       : 8
Format                                   : UTF-8
Codec ID                                 : S_TEXT/UTF8
Codec ID/Info                            : UTF-8 Plain Text
Title                                    : SDH
Language                                 : English
Default                                  : No
Forced                                   : No


  • В заключительной серии первого сезона Мик (Джон Войт), ожидая Рэя (Лив Шрайбер), сидит в спортзале братьев Донован. Над диваном отчетливо виден постер одного из боев известного российского профессионального боксера, олимпийского чемпиона Александра Поветкина.
  • В финале четвертой серии первого сезона Донован и Ави ведут телефонный разговор, во время которого видно, что телефон Ави отображает стандартный рабочий стол Android, а не находится в режиме набора номера.
  • pb.wtf



    Скачать Рэй Донован через торрент http://i63.fastpic.ru/big/2014/1230/7e/a1f74624274512a0061af59006ab1b7e.jpeg Скачать фильм Рэй Донован через торрент бесплантно в хорошем качестве Описание: Это Рей. Он, как тарантиновский мистер Вулф, решает проблемы. Проблемы у калифорнийских звезд и прожигателей жизни бывают разные, ... 10 10 6
    Info! Золотая раздача, скачанное не засчитывается.
    Торрент: Зарегистрирован [2014-12-30 20:43] · скачан: 98 раз
    Статус: √ проверено
    Размер: 27.72 GB
    Как cкачать? Как скачать Рэй Донован через торрент | qTorrent

    28-11-2019 20:33  

    Отключить всю рекламу на сайте

      Дорогой пользователь! Огромная просьба, поблагодарите релизера, оцените раздачу и оставьте свои комментарий, если Вы скачали Рэй Донован через торрент бесплатно! Внесите свою лепту в развитие PiratBit!
      Комментировать посты могут только пользователи прошедшие не сложную регистрацию
      Показать сообщения:    

      Рэй Донован через торрент
      Скачать бесплатно Рэй Донован
      Рэй Донован скачать торрент
      Рэй Донован смотреть онлайн
      Cкачать фильм Рэй Донован бесплатно
      Рэй Донован скачать торрент в хорошем качестве
      Рэй Донован смотреть онлайн бесплатно в хорошем качестве


      Вы не можете начинать темы
      Вы не можете отвечать на сообщения
      Вы не можете редактировать свои сообщения
      Вы не можете удалять свои сообщения
      Вы не можете голосовать в опросах
      Вы не можете прикреплять файлы к сообщениям
      Вы можете скачивать файлы