Ссылка на приватное зеркало нашего сайта всего за 1$. Внимание количество ограничено!!!

2 сезон

iTunes

1 сезон

1

iTunes

iTunes

iTunes

1 сезон

RePack

30

ИГРА 18+

pack

ВАЖНО

!!Акция!!

Alien_RageХит недели

RePack

MK11
pack

Забери бонус

RePack

jed

!!Акция!!

Alien_Rage

RePack

fifa19

RePack

Assassins Creed: Odyssey

RePack

NEED FOR SPEED™ PAYBACK

4 сезон

9 сезон

Бесстыжие 9 сезон

Все сериалы

все сериалы на PB.wtf

RePack

FAR CRY 5
  

Крёстный / Сезон: 1 / Серии 1-8 из 8 (Тимур Алпатов) [2014, Россия, драма, IPTVRip) pb.wtf

Крёстный через торрент pb.wtf

Размер: 4.35 GB | Добавлен: 5 лет 9 мес. назад | Торрент скачан:386 раз
Скачать  

31-12-2014 04:24 Крёстный Скачать торрент  

Крёстный


  • Год выпуска: 2014
  • Страна: Россия
  • Жанр: драма
  • Продолжительность: 00:47:09 (Серия)
  • Перевод: Не требуется

  • Режиссер: Тимур Алпатов
  • В ролях:

    Сергей Пускепалис (Илья Борисович Алёхин), Андрей Смоляков (Игорь Федорович), Алиса Горшкова (Яна), Северия Янушаускайте (Кристина), Ольга Ломоносова (Анна), Сергей Барковский (Гущин), Марина Коняшкина (Катя), Геннадий Смирнов (Коротаев), Григорий Зельцер (Гия Лежава), Анна Некрасова (Наташа), Владимир Кошевой (Марк Львович Левандовский), Микаэл Арамян (Кайсаров)

  • Описание:
    Бывший военный врач Алехин - акушер от Бога. Во время войны в Косово он помогал роженицам, став крестным для сотен сербских и албанских ребятишек. Но в мирное время действуют другие законы. В надежде получить Нобелевскую премию, амбициозные коллеги Алехина затевают научно-медицинский эксперимент. Его цель - помочь родиться ребенку неизвестной женщины, лежащей в коме. Алехин соглашается участвовать, но не ради славы или денег. Для него важен лишь ребенок, которому необходима помощь крестного.
  • Рейтинг:



  • Качество: IPTVRip
  • Формат: :AVI
  • Видео кодек: XviD
  • Аудио кодек: MP3
  • Видео: 720x400 (16:9), 1499 kbps, 25 fps, 0,208 bpp
  • Аудио: 2.0 / 48 kHz / 128 kbps /
  • Релиз от: GEKADOL

    Код:

    Внимание! Раздача ведётся путём добавления новых серий; при каждом добавлении создаётся новый торрент. Чтобы начать докачку новой серии, пользователям необходимо сделать следующее:
    (1) остановить скачивание,
    (2) удалить старый торрент у себя из клиента (старые серии удалять не надо),
    (3) скачать новый торрент и запустить его у себя в клиенте вместо старого, при этом указать клиенту путь в старую папку куда и должно происходить скачивание новых серий.
    Ваш клиент при этом должен произвести хеширование (проверку) старой папки (если не производит сам - помогите ему сделать это), и будет докачивать только те серии которых у вас ещё нет. Старые серии при этом не удаляются, а продолжают раздаваться!
    Eсли вы уже удалили старые серии, то предотвратить повторную закачку старых серий можно, отжав галочку в соответсвующих местах при запуске нового торрента. По возможности, желательно не удалять старые серии как можно дольше чтобы релизёр не столько продолжал раздавать старые серии, а смог сконцентрироваться на новых.


    Код:

    General
    Complete name                            : D:\Фильмы\Krjostnyj\Krjostnyj.06.IPTVRip.avi
    Format                                   : AVI
    Format/Info                              : Audio Video Interleave
    File size                                : 552 MiB
    Duration                                 : 47mn 9s
    Overall bit rate                         : 1 638 Kbps
    Writing application                      : VirtualDubMod 1.5.10.3 | www.virtualdub-fr.org || (build 2550/release)
    Writing library                          : VirtualDubMod build 2550/release

    Video
    ID                                       : 0
    Format                                   : MPEG-4 Visual
    Format profile                           : Advanced Simple@L5
    Format settings, BVOP                    : 2
    Format settings, QPel                    : No
    Format settings, GMC                     : No warppoints
    Format settings, Matrix                  : Default (H.263)
    Codec ID                                 : XVID
    Codec ID/Hint                            : XviD
    Duration                                 : 47mn 9s
    Bit rate                                 : 1 500 Kbps
    Width                                    : 720 pixels
    Height                                   : 400 pixels
    Display aspect ratio                     : 16:9
    Frame rate                               : 25.000 fps
    Color space                              : YUV
    Chroma subsampling                       : 4:2:0
    Bit depth                                : 8 bits
    Scan type                                : Progressive
    Compression mode                         : Lossy
    Bits/(Pixel*Frame)                       : 0.208
    Stream size                              : 506 MiB (92%)
    Writing library                          : XviD 1.2.1 (UTC 2008-12-04)

    Audio
    ID                                       : 1
    Format                                   : MPEG Audio
    Format version                           : Version 1
    Format profile                           : Layer 3
    Mode                                     : Joint stereo
    Mode extension                           : MS Stereo
    Codec ID                                 : 55
    Codec ID/Hint                            : MP3
    Duration                                 : 47mn 9s
    Bit rate mode                            : Constant
    Bit rate                                 : 128 Kbps
    Channel(s)                               : 2 channels
    Sampling rate                            : 48.0 KHz
    Compression mode                         : Lossy
    Stream size                              : 43.2 MiB (8%)
    Alignment                                : Aligned on interleaves
    Interleave, duration                     : 40 ms (1.00 video frame)
    Interleave, preload duration             : 504 ms
    Writing library                          : LAME3.99r
    Encoding settings                        : -m j -V 4 -q 9 -lowpass 17 -b 128




    Скриншоты:
    скриншот   скриншот   скриншот   скриншот   скриншот  
    скриншот  

    Раздача ведётся путём добавления новых серий. Добавлена 8 серия (14.01.2015).Просьба перекачать торрент файл.

    pb.wtf



  • Скачать Крёстный через торрент http://i64.fastpic.ru/big/2014/1231/f8/b607c321402a317b4499634ca01bb4f8.jpg Скачать фильм Крёстный через торрент бесплантно в хорошем качестве Описание: Бывший военный врач Алехин - акушер от Бога. Во время войны в Косово он помогал роженицам, став крестным для сотен сербских и ... 9.4 10 19
    Info! Золотая раздача, скачанное не засчитывается.
    Торрент: Зарегистрирован [2015-01-14 03:13] · скачан: 386 раз
    Статус: √ проверено
    Размер: 4.35 GB
    Как cкачать? Как скачать Крёстный через торрент | qTorrent

    % Раздел Тема Автор DL S | L
    Наши сериалы [ 21.43 GB ] Крёстный / Сезон: 1 / Серии: 1-8 из 8 [2014 HDTV 1080i] bober100 Скачать
    1 | 0
    Наши сериалы [ 14.28 GB ] Крёстный / Сезон: 1 / Серии: 1-8 из 8 [2014 WEB-DL 1080p] bober100 Скачать
    1 | 0
    Наши сериалы [ 4.3 GB ] Крестная дочь /Сезон: 1/Серии: 8 из 8 / [2011 DVDRip] -=Cherry=- Скачать
    1 | 0


    Последний раз редактировалось: GEKADOL (2015-01-14 03:14), всего редактировалось 2 раз(а)

    28-11-2019 20:33  

    Отключить всю рекламу на сайте

    11-01-2015 22:16 Крёстный Скачать торрент  

    неплохой сериал!Интересно что дальше!Когда продолжение? Раздающему спасибо)))pb.wtf



      Дорогой пользователь! Огромная просьба, поблагодарите релизера, оцените раздачу и оставьте свои комментарий, если Вы скачали Крёстный через торрент бесплатно! Внесите свою лепту в развитие PiratBit!
      Комментировать посты могут только пользователи прошедшие не сложную регистрацию
      Показать сообщения:    

      Крёстный через торрент
      Скачать бесплатно Крёстный
      Крёстный скачать торрент
      Крёстный смотреть онлайн
      Cкачать фильм Крёстный бесплатно
      Крёстный скачать торрент в хорошем качестве
      Крёстный смотреть онлайн бесплатно в хорошем качестве


      Вы не можете начинать темы
      Вы не можете отвечать на сообщения
      Вы не можете редактировать свои сообщения
      Вы не можете удалять свои сообщения
      Вы не можете голосовать в опросах
      Вы не можете прикреплять файлы к сообщениям
      Вы можете скачивать файлы