2 сезон

iTunes

1 сезон

1

iTunes

iTunes

iTunes

1 сезон

RePack

30

ИГРА 18+

pack

ВАЖНО

!!Акция!!

Alien_RageХит недели

RePack

MK11
pack

Забери бонус

RePack

jed

!!Акция!!

Alien_Rage

RePack

fifa19

RePack

Assassins Creed: Odyssey

RePack

NEED FOR SPEED™ PAYBACK

4 сезон

9 сезон

Бесстыжие 9 сезон

Все сериалы

все сериалы на PB.wtf

RePack

FAR CRY 5
  

В погоне за Эми / Chasing Amy (Кевин Смит) [1997, драма, мелодрама, комедия, BDRip 1080p] 2 x MVO, AVO, VO pb.wtf

В погоне за Эми через торрент pb.wtf

Размер: 17.53 GB | Добавлен: 5 лет 10 мес. назад | Торрент скачан:31 раз
Скачать  

31-12-2014 12:29 В погоне за Эми Скачать торрент  

В погоне за Эми / Chasing Amy

Год выпуска: 1997
Страна: США
Жанр: драма, мелодрама, комедия
Продолжительность: 01:53:04
Перевод: профессиональный многоголосый, авторский, любительский одноголосый
Субтитры: русские, английские (все отдельно)

Режиссёр: Кевин Смит

В ролях: Бен Аффлек, Джои Лорен Эдамс, Джейсон Ли, Итэн Сапли, Скотт Можер, Кейси Аффлек, Дуайт Юэлл, Гвиневер Тёрнер, Кармен Ллайвелин, Брайан О’Хэллоран, Мэтт Дэймон, Тони Торн, Ребекка Ваксман, Пэрис Петрик, Уэлкер Уайт, Келли Симпкинс, Джон Уиллюнг, Це-Мач Вашингтон, Эрнест О’Доннелл, Джейсон Мьюз, Кевин Смит, Кристин Мосье, Вирджиния Смит

Описание: Молодой художник теряет голову и ощущение реальности, когда безумно влюбляется в восхитительную красотку, чьи любовные похождения, в том числе и лесбийские, трудно сосчитать. Его лучший друг, он же партнёр, подбрасывает ему всякие доказательства тёмного прошлого этой легкомысленной особы. Однако влюблённый художник ничего не желает слушать и не перестаёт думать и мечтать о неугомонной Эми...



Качество: BDRip 1080p Сравнение с исходником
Формат: MKV
Видео кодек: H.264
Аудио кодек: AC3, DTS
Видео: 17.2 Mbps, 1920x1080, 23.976 кадра/с, 0.346 bpp
Аудио 1: русский, AC3, 448 kbps, 6 ch, 48 kHz [профессиональный многоголосый, вариант 1]
Аудио 2: русский, DTS, 1509 kbps, 6 ch, 48 kHz [авторский, Юрий Живов]

Отдельные файлы
Аудио: русский, AC3, 384 kbps, 6 ch, 48 kHz [профессиональный многоголосый, вариант 2]
Аудио: русский, AC3, 448 kbps, 6 ch, 48 kHz [авторский, Юрий Живов]
Аудио: русский, AC3, 448 kbps, 6 ch, 48 kHz [любительский, LeXiKC, с ненормативной лексикой]
Аудио: английский, DTS, 1509 kbps, 6 ch, 48 kHz [оригинал]

Имеются неименованные главы/чаптеры.
Золотой глобус, 1998 год
Номинации (1):
Лучшая женская роль (комедия или мюзикл) (Джои Лорен Эдамс)

Премия канала «MTV», 1998 год
Номинации (2):
Прорыв года (Джои Лорен Эдамс)
Лучший поцелуй (Джои Лорен Эдамс, Кармен Ллайвелин)
Общее
Полное имя : D:VideoV pogone za Emi.1997.BDRip.1080pV pogone za Emi.1997.AVO.rus.Ю.Живов.ac3
Формат : AC-3
Формат/Информация : Audio Coding 3
Размер файла : 362 Мбайт
Продолжительность : 1 ч. 53 м.
Режим общего битрейта : Постоянный
Общий поток : 448 Кбит/сек

Аудио
Формат : AC-3
Формат/Информация : Audio Coding 3
Расширение режима : CM (complete main)
Параметр Endianness формата : Big
Продолжительность : 1 ч. 53 м.
Вид битрейта : Постоянный
Битрейт : 448 Кбит/сек
Каналы : 6 каналов
Расположение каналов : Front: L C R, Side: L R, LFE
Частота : 48,0 КГц
Битовая глубина : 16 бит
Метод сжатия : С потерями
Размер потока : 362 Мбайт (100%)

Общее
Уникальный идентификатор : 214972788793614711925850115122543896591 (0xA1BA40CC3FF6DC539207B3E41A1EA80F)
Полное имя : D:VideoV pogone za Emi.1997.BDRip.1080pV pogone za Emi.1997.BDRip.1080p.mkv
Формат : Matroska
Версия формата : Version 4 / Version 2
Размер файла : 15,4 Гбайт
Продолжительность : 1 ч. 53 м.
Общий поток : 19,5 Мбит/сек
Дата кодирования : UTC 2014-12-31 10:12:54
Программа кодирования : mkvmerge v7.4.0 ('Circles') 64bit built on Dec 12 2014 12:19:56
Библиотека кодирования : libebml v1.3.0 + libmatroska v1.4.1
DURATION : 01:53:04.310000000
NUMBER_OF_FRAMES : 636029
NUMBER_OF_BYTES : 1280326377
_STATISTICS_WRITING_APP : mkvmerge v7.4.0 ('Circles') 64bit built on Dec 12 2014 12:19:56
_STATISTICS_WRITING_DATE_UTC : 2014-12-31 10:12:54
_STATISTICS_TAGS : BPS DURATION NUMBER_OF_FRAMES NUMBER_OF_BYTES

Видео
Идентификатор : 1
Формат : AVC
Формат/Информация : Advanced Video Codec
Профиль формата : High@L4.1
Параметр CABAC формата : Да
Параметр ReFrames формата : 4 кадра
Идентификатор кодека : V_MPEG4/ISO/AVC
Продолжительность : 1 ч. 53 м.
Битрейт : 17,2 Мбит/сек
Ширина : 1920 пикселей
Высота : 1080 пикселей
Соотношение сторон : 16:9
Режим частоты кадров : Постоянный
Частота кадров : 23,976 кадра/сек
Цветовое пространство : YUV
Субдискретизация насыщенности : 4:2:0
Битовая глубина : 8 бит
Тип развёртки : Прогрессивная
Бит/(Пиксели*Кадры) : 0.346
Размер потока : 13,6 Гбайт (88%)
Заголовок : BDRip -- STarankov
Библиотека кодирования : x264 core 142 r2431 ac76440
Настройки программы : cabac=1 / ref=4 / deblock=1:-1:-1 / analyse=0x3:0x113 / me=umh / subme=10 / psy=1 / psy_rd=1.00:0.15 / mixed_ref=1 / me_range=32 / chroma_me=1 / trellis=2 / 8x8dct=1 / cqm=0 / deadzone=21,11 / fast_pskip=1 / chroma_qp_offset=-3 / threads=6 / lookahead_threads=1 / sliced_threads=0 / nr=0 / decimate=1 / interlaced=0 / bluray_compat=0 / constrained_intra=0 / bframes=8 / b_pyramid=2 / b_adapt=2 / b_bias=0 / direct=3 / weightb=1 / open_gop=0 / weightp=2 / keyint=230 / keyint_min=23 / scenecut=40 / intra_refresh=0 / rc_lookahead=40 / rc=crf / mbtree=0 / crf=18.6 / qcomp=0.60 / qpmin=0 / qpmax=69 / qpstep=4 / vbv_maxrate=40000 / vbv_bufsize=50000 / crf_max=0.0 / nal_hrd=none / filler=0 / ip_ratio=1.40 / pb_ratio=1.30 / aq=1:1.00
Язык : English
Default : Да
Forced : Нет
DURATION : 01:53:04.236000000
NUMBER_OF_FRAMES : 162659
NUMBER_OF_BYTES : 14900078711
_STATISTICS_WRITING_APP : mkvmerge v7.4.0 ('Circles') 64bit built on Dec 12 2014 12:19:56
_STATISTICS_WRITING_DATE_UTC : 2014-12-31 10:12:54
_STATISTICS_TAGS : BPS DURATION NUMBER_OF_FRAMES NUMBER_OF_BYTES

Аудио #1
Идентификатор : 2
Формат : AC-3
Формат/Информация : Audio Coding 3
Расширение режима : CM (complete main)
Параметр Endianness формата : Big
Идентификатор кодека : A_AC3
Продолжительность : 1 ч. 53 м.
Вид битрейта : Постоянный
Битрейт : 448 Кбит/сек
Каналы : 6 каналов
Расположение каналов : Front: L C R, Side: L R, LFE
Частота : 48,0 КГц
Битовая глубина : 16 бит
Метод сжатия : С потерями
Размер потока : 362 Мбайт (2%)
Заголовок : MVO
Язык : Russian
Default : Да
Forced : Нет

Аудио #2
Идентификатор : 3
Формат : DTS
Формат/Информация : Digital Theater Systems
Режим : 16
Параметр Endianness формата : Big
Идентификатор кодека : A_DTS
Продолжительность : 1 ч. 53 м.
Вид битрейта : Постоянный
Битрейт : 1510 Кбит/сек
Каналы : 6 каналов
Расположение каналов : Front: L C R, Side: L R, LFE
Частота : 48,0 КГц
Битовая глубина : 24 бит
Метод сжатия : С потерями
Размер потока : 1,19 Гбайт (8%)
Заголовок : AVO (Юрий Живов)
Язык : Russian
Default : Нет
Forced : Нет

Общее
Полное имя : D:VideoV pogone za Emi.1997.BDRip.1080pV pogone za Emi.1997.eng.SDH.srt
Формат : SubRip
Размер файла : 139 Кбайт

Текст
Формат : SubRip
Метод сжатия : Без потерь

Общее
Полное имя : D:VideoV pogone za Emi.1997.BDRip.1080pV pogone za Emi.1997.MVO.rus.ac3
Формат : AC-3
Формат/Информация : Audio Coding 3
Размер файла : 311 Мбайт
Продолжительность : 1 ч. 53 м.
Режим общего битрейта : Постоянный
Общий поток : 384 Кбит/сек

Аудио
Формат : AC-3
Формат/Информация : Audio Coding 3
Расширение режима : CM (complete main)
Параметр Endianness формата : Big
Продолжительность : 1 ч. 53 м.
Вид битрейта : Постоянный
Битрейт : 384 Кбит/сек
Каналы : 6 каналов
Расположение каналов : Front: L C R, Side: L R, LFE
Частота : 48,0 КГц
Битовая глубина : 16 бит
Метод сжатия : С потерями
Размер потока : 311 Мбайт (100%)

Общее
Полное имя : D:VideoV pogone za Emi.1997.BDRip.1080pV pogone za Emi.1997.Original.eng.dts
Формат : DTS
Формат/Информация : Digital Theater Systems
Размер файла : 1,19 Гбайт
Продолжительность : 1 ч. 53 м.
Режим общего битрейта : Постоянный
Общий поток : 1509 Кбит/сек

Аудио
Формат : DTS
Формат/Информация : Digital Theater Systems
Режим : 16
Параметр Endianness формата : Big
Продолжительность : 1 ч. 53 м.
Вид битрейта : Постоянный
Битрейт : 1509 Кбит/сек
Каналы : 6 каналов
Расположение каналов : Front: L C R, Side: L R, LFE
Частота : 48,0 КГц
Битовая глубина : 24 бит
Метод сжатия : С потерями
Размер потока : 1,19 Гбайт (100%)

Общее
Полное имя : D:VideoV pogone za Emi.1997.BDRip.1080pV pogone za Emi.1997.rus.srt
Формат : SubRip
Размер файла : 117 Кбайт

Текст
Формат : SubRip
Метод сжатия : Без потерь

Общее
Полное имя : D:VideoV pogone za Emi.1997.BDRip.1080pV pogone za Emi.1997.VO.rus.LeXiKC.ac3
Формат : AC-3
Формат/Информация : Audio Coding 3
Размер файла : 266 Мбайт
Продолжительность : 1 ч. 22 м.
Режим общего битрейта : Постоянный
Общий поток : 448 Кбит/сек

Аудио
Формат : AC-3
Формат/Информация : Audio Coding 3
Расширение режима : CM (complete main)
Параметр Endianness формата : Big
Продолжительность : 1 ч. 22 м.
Вид битрейта : Постоянный
Битрейт : 448 Кбит/сек
Каналы : 6 каналов
Расположение каналов : Front: L C R, Side: L R, LFE
Частота : 48,0 КГц
Битовая глубина : 16 бит
Метод сжатия : С потерями
Размер потока : 266 Мбайт (100%)
pb.wtf



Скачать В погоне за Эми через торрент http://i64.fastpic.ru/big/2014/1230/dc/a9245625b46a38623cbce8d66927dddc.jpg Скачать фильм В погоне за Эми через торрент бесплантно в хорошем качестве Описание: Молодой художник теряет голову и ощущение реальности, когда безумно влюбляется в восхитительную красотку, чьи любовные ... 10 10 5
Info! Золотая раздача, скачанное не засчитывается.
Торрент: Зарегистрирован [2014-12-31 12:29] · скачан: 31 раз
Статус: √ проверено
Размер: 17.53 GB
Как cкачать? Как скачать В погоне за Эми через торрент | qTorrent

% Раздел Тема Автор DL S | L
Фильмы [HD 720p, 1080p] (Хороший звук DUB, MVO) [ 9.05 GB ] В погоне за Эми / Chasing Amy [1997 BDRip 720p] 2 x MVO AVO VO msltel Скачать
1 | 0


Последний раз редактировалось: msltel (2014-12-31 13:20), всего редактировалось 2 раз(а)

28-11-2019 20:33  

Отключить всю рекламу на сайте

31-12-2014 12:34 В погоне за Эми Скачать торрент  

Рип - по просьбе.pb.wtf



    Дорогой пользователь! Огромная просьба, поблагодарите релизера, оцените раздачу и оставьте свои комментарий, если Вы скачали В погоне за Эми через торрент бесплатно! Внесите свою лепту в развитие PiratBit!
    Комментировать посты могут только пользователи прошедшие не сложную регистрацию
    Показать сообщения:    

    В погоне за Эми через торрент
    Скачать бесплатно В погоне за Эми
    В погоне за Эми скачать торрент
    В погоне за Эми смотреть онлайн
    Cкачать фильм В погоне за Эми бесплатно
    В погоне за Эми скачать торрент в хорошем качестве
    В погоне за Эми смотреть онлайн бесплатно в хорошем качестве


    Вы не можете начинать темы
    Вы не можете отвечать на сообщения
    Вы не можете редактировать свои сообщения
    Вы не можете удалять свои сообщения
    Вы не можете голосовать в опросах
    Вы не можете прикреплять файлы к сообщениям
    Вы можете скачивать файлы