Ссылка на приватное зеркало нашего сайта всего за 1$. Внимание количество ограничено!!!

2 сезон

iTunes

1 сезон

1

iTunes

iTunes

iTunes

1 сезон

RePack

30

ИГРА 18+

pack

ВАЖНО

!!Акция!!

Alien_RageХит недели

RePack

MK11
pack

Забери бонус

RePack

jed

!!Акция!!

Alien_Rage

RePack

fifa19

RePack

Assassins Creed: Odyssey

RePack

NEED FOR SPEED™ PAYBACK

4 сезон

9 сезон

Бесстыжие 9 сезон

Все сериалы

все сериалы на PB.wtf

RePack

FAR CRY 5
  

Одержимость Майкла Кинга / The Possession of Michael King (Дэвид Юнг) [2014, Ужасы, Дублированный, BDRip 720p][Чистый звук] pb.wtf

Одержимость Майкла Кинга через торрент pb.wtf

Размер: 3.6 GB | Добавлен: 5 лет 9 мес. назад | Торрент скачан:678 раз
Скачать  

31-12-2014 15:54 Одержимость Майкла Кинга Скачать торрент  


Одержимость Майкла Кинга / The Possession of Michael King

«Зло не отпустит тебя»
Год выпуска: 2014
Страна: США
Жанр: Ужасы
Продолжительность: 01:23:06

Перевод: Дублированный [Чистый звук]
Субтитры: английскиe



В ролях:
Шэйн Джонсон, Элла Андерсон, Кара Пифко, Кристал Альварез, Томас Арана, Люк Бэйнс, Дейл Дикки, Каллен Дуглас, Майкл Рэй Эскамиллья, Рамона Дж. Фаррингтон




Режиссёр:
Дэвид Юнг



Описание:
Главный герой фильма - режиссер-документалист, который не верит ни в Бога, ни в дьявола. Когда умирает его жена, он решает снять фильм о религии и спиритуализме и доказать, что вся мистика - это просто выдумка. В процессе съемок он встречается с демонологами, некромантами и оккультистами, которые испытывают на нем самые темные и сильные заклятия. Эти обряды пробуждают неведомые и безудержные силы зла......


Качество: BDRip 720p
Формат: MKV
Видео кодек: AVC
Аудио кодек: AC3
Видео: 1280 x 720 (1.778) at 23.976 fps AVC at 5031 Кбит/сек
Аудио1: (Русский) 2 канала, 48,0 КГц AC-3 at 384 Кбит/сек
Аудио2: (Английский) 6 каналов, 48,0 КГц AC-3 at 640 Кбит/сек

Общее
Уникальный идентификатор : 179028618846497456866491420561503424505 (0x86AFA8652DF047FF91099BF932040FF9)
Полное имя : E:\Torrents\Oderjimosti.maikla.kinga.2014.D.BDRip.720p.mkv
Формат : Matroska
Версия формата : Version 2
Размер файла : 3,60 Гбайт
Продолжительность : 1 ч. 23 м.
Общий поток : 6178 Кбит/сек
Название фильма : The Possession of Michael King (2014)
Дата кодирования : UTC 2014-12-31 13:47:26
Программа кодирования : mkvmerge v5.8.0 ('No Sleep / Pillow') built on Sep 2 2012 15:37:04
Библиотека кодирования : libebml v1.2.3 + libmatroska v1.3.0
Attachment : Yes / Yes

Видео
Идентификатор : 1
Формат : AVC
Формат/Информация : Advanced Video Codec
Профиль формата : High@L4.1
Параметр CABAC формата : Да
Параметр ReFrames формата : 9 кадров
Идентификатор кодека : V_MPEG4/ISO/AVC
Продолжительность : 1 ч. 23 м.
Битрейт : 5031 Кбит/сек
Ширина : 1280 пикселей
Высота : 720 пикселей
Соотношение сторон : 16:9
Режим частоты кадров : Постоянный
Частота кадров : 23,976 кадра/сек
Цветовое пространство : YUV
Субдискретизация насыщенности : 4:2:0
Битовая глубина : 8 бит
Тип развёртки : Прогрессивная
Бит/(Пиксели*Кадры) : 0.228
Размер потока : 2,93 Гбайт (81%)
Заголовок : The Possession of Michael King (2014)
Язык : English
Default : Да
Forced : Нет
Основные цвета : BT.709
Характеристики трансфера : BT.709
Коэффициенты матрицы : BT.709

Аудио #1
Идентификатор : 2
Формат : AC-3
Формат/Информация : Audio Coding 3
Расширение режима : CM (complete main)
Параметр Endianness формата : Big
Идентификатор кодека : A_AC3
Продолжительность : 1 ч. 23 м.
Вид битрейта : Постоянный
Битрейт : 384 Кбит/сек
Каналы : 2 канала
Расположение каналов : Front: L R
Частота : 48,0 КГц
Битовая глубина : 16 бит
Метод сжатия : С потерями
Размер потока : 229 Мбайт (6%)
Язык : Russian
Default : Да
Forced : Нет

Аудио #2
Идентификатор : 3
Формат : AC-3
Формат/Информация : Audio Coding 3
Расширение режима : CM (complete main)
Параметр Endianness формата : Big
Идентификатор кодека : A_AC3
Продолжительность : 1 ч. 23 м.
Вид битрейта : Постоянный
Битрейт : 640 Кбит/сек
Каналы : 6 каналов
Расположение каналов : Front: L C R, Side: L R, LFE
Частота : 48,0 КГц
Битовая глубина : 16 бит
Метод сжатия : С потерями
Размер потока : 382 Мбайт (10%)
Заголовок : original
Язык : English
Default : Нет
Forced : Нет

Текст #1
Идентификатор : 4
Формат : UTF-8
Идентификатор кодека : S_TEXT/UTF8
Идентификатор кодека/Информация : UTF-8 Plain Text
Заголовок : Full - ENG - BD
Язык : English
Default : Нет
Forced : Нет

Текст #2
Идентификатор : 5
Формат : UTF-8
Идентификатор кодека : S_TEXT/UTF8
Идентификатор кодека/Информация : UTF-8 Plain Text
Заголовок : SDH - ENG - BD
Язык : English
Default : Нет
Forced : Нет

Меню
00:00:00.000 : en:Chapter 01
00:08:33.471 : en:Chapter 02
00:18:26.688 : en:Chapter 03
00:26:15.657 : en:Chapter 04
00:34:24.395 : en:Chapter 05
00:42:02.645 : en:Chapter 06
00:46:34.041 : en:Chapter 07
00:49:06.777 : en:Chapter 08
00:53:31.166 : en:Chapter 09
00:59:11.965 : en:Chapter 10
01:09:56.025 : en:Chapter 11
01:16:42.931 : en:Chapter 12
pb.wtf



Скачать Одержимость Майкла Кинга через торрент http://i67.fastpic.ru/big/2014/1231/29/9294cfe64aa8b9f9897109a1eb9ed929.png Скачать фильм Одержимость Майкла Кинга через торрент бесплантно в хорошем качестве Описание:Главный герой фильма - режиссер-документалист, который не верит ни в Бога, ни в дьявола. Когда умирает его жена, он решает снять ... 9.5 10 33
Info! Золотая раздача, скачанное не засчитывается.
Торрент: Зарегистрирован [2014-12-31 15:54] · скачан: 678 раз
Статус: T временная
Размер: 3.6 GB
Как cкачать? Как скачать Одержимость Майкла Кинга через торрент | qTorrent

% Раздел Тема Автор DL S | L
Фильмы 2014 [DVDrip, WEB-DLRip, HDrip] [ 1.46 GB ] Одержимость Майкла Кинга / The Possession of Michael King [2014 HDRip-AVC от Ворон] DUB Ворон Скачать
1 | 0
T Фильмы 2014 [DVDrip, WEB-DLRip, HDrip] [ 1.46 GB ] Одержимость Майкла Кинга / The Possession of Michael King [2014 HDRip ] / Чистый звук Ворон Скачать
1 | 0
Фильмы с авторской озвучкой [ 1.46 GB ] Одержимость Майкла Кинга / The Possession of Michael King [2014 HDRip Авторский одноголосый "А.Дольский"] coc900 Скачать
1 | 0
Фильмы с авторской озвучкой [ 3.75 GB ] Одержимость Майкла Кинга / The Possession of Michael King [2014 BDRip 720p Авторский одноголосый "А.Дольский"] Ворон Скачать
1 | 0


Последний раз редактировалось: Cталин (2014-12-31 16:24), всего редактировалось 1 раз

28-11-2019 20:33  

Отключить всю рекламу на сайте

31-12-2014 16:10 Одержимость Майкла Кинга Скачать торрент  

с наступающим ребята! :ng:pb.wtf



31-12-2014 16:20 Одержимость Майкла Кинга Скачать торрент  

Взаимно !pb.wtf



31-12-2014 16:23 Одержимость Майкла Кинга Скачать торрент  

всех с праздником-фильм хвалят-пишу-спасибоpb.wtf



01-01-2015 11:07 Одержимость Майкла Кинга Скачать торрент  

что то хвалильщики даже до 6 рейтинг не дотянули)pb.wtf



02-01-2015 14:14 Одержимость Майкла Кинга Скачать торрент  

ну слава богу не два с половиной-как последние наши комедии в основном-а так и вправду для поклонников жанра- на разок-средьненькоpb.wtf



    Дорогой пользователь! Огромная просьба, поблагодарите релизера, оцените раздачу и оставьте свои комментарий, если Вы скачали Одержимость Майкла Кинга через торрент бесплатно! Внесите свою лепту в развитие PiratBit!
    Комментировать посты могут только пользователи прошедшие не сложную регистрацию
    Показать сообщения:    

    Одержимость Майкла Кинга через торрент
    Скачать бесплатно Одержимость Майкла Кинга
    Одержимость Майкла Кинга скачать торрент
    Одержимость Майкла Кинга смотреть онлайн
    Cкачать фильм Одержимость Майкла Кинга бесплатно
    Одержимость Майкла Кинга скачать торрент в хорошем качестве
    Одержимость Майкла Кинга смотреть онлайн бесплатно в хорошем качестве


    Вы не можете начинать темы
    Вы не можете отвечать на сообщения
    Вы не можете редактировать свои сообщения
    Вы не можете удалять свои сообщения
    Вы не можете голосовать в опросах
    Вы не можете прикреплять файлы к сообщениям
    Вы можете скачивать файлы