Ссылка на приватное зеркало нашего сайта всего за 1$. Внимание количество ограничено!!!

2 сезон

iTunes

1 сезон

1

2 сезон

2 сезон

iTunes

1 сезон

RePack

30

Новинка

ВАЖНО

ИГРА 18+

pack

RePack

MK11
pack

Забери бонус

RePack

jed

!!Акция!!

Alien_Rage

RePack

fifa19

RePack

Assassins Creed: Odyssey

RePack

NEED FOR SPEED™ PAYBACK

4 сезон

9 сезон

Бесстыжие 9 сезон

Все сериалы

все сериалы на PB.wtf

RePack

FAR CRY 5
  

Манхэттенская история любви / Manhattan Love Story / Сезон:1 / Серии:1-11 из 11 (Майкл Фреско) [2014 г., Комедия, WEB-DL 720p] MVO (BaibaKo) pb.wtf

Манхэттенская история любви через торрент pb.wtf

Размер: 7.97 GB | Добавлен: 5 лет 9 мес. назад | Торрент скачан:13 раз
Скачать  

31-12-2014 20:58 Манхэттенская история любви Скачать торрент  

Манхэттенская история любви / Manhattan Love StoryГод выпуска: 2014
Страна: США ABC Studios, Brillstein Entertainment Partners
Жанр: Комедия
Продолжительность: 11 x ~ 00:22:00
Перевод: Профессиональный многоголосый
Релиз-группа: BaibaKo tv
Перевод: Мария Матвейчук и Анна Макаренко (бюро переводов "SM-Group")
Озвучка: Светлана Доманова, Татьяна Оболевич, Артемий Мирон и Акмал Гурезов


Режиссер: Майкл Фреско
Продюссер: Рэйчел Каплан, Джефф Лоуелл, Robin Schwartz
Сценарий: Джефф Лоуелл, Эллисон Вентрауб, Lindsay Gelfand

Премьера в мире: 30 сентября 2014 В ролях: Аналей Типтон, Джэйк Макдорман, Николас Райт, Джейд Катта-Прета, Хлоя Веппер, Курт Фуллер, Ричард Р. Корапи, Майлз Дж. Харви, Алекс Хюн

Описание: Главные герои — парень и девушка, которые познакомились на свидании вслепую. Их первое свидание с треском провалилось, но последующие встречи положили начало новым прекрасным отношениям. Впереди их ждут Нью-Йорк, новые открытия, яркие эмоции и миллионы мимолетных и серьезных мыслей. «Манхэттенская история любви» — необычный комедийный сериал, в котором основной акцент сделан на внутренних монологах героев в процессе развития их отношений. Сериал рассказывает о различиях между мужчинами и женщинами через неотфильтрованные мысли и зачастую противоречивые действия пары.

Качество: WEB-DL 720p
Формат: MKV
Видео кодек: MPEG4-AVC
Аудио кодек: AC3
Видео: MPEG4 Video (H264), 1280x720, 23.976fps, 3 950 Kbps
Аудио#1: Dolby AC3, 48000Hz, 6ch, 384 Kbps [Russian (Audio 1)
Аудио#2: Dolby AC3, 48000Hz, 6ch, 384 Kbps [English (Audio 2)
Релиз от: filin1984
Скриншоты:
скриншот  скриншот  скриншот  скриншот  скриншот  




General
Unique ID : 218697283509433384073630305691218708714 (0xA48790909E3843BD8EC8F88DCD8388EA)
Complete name : H:\80\Manhattan.Love.Story.s01.720p.WEB-DL.Rus.Eng.BaibaKo\Manhattan.Love.Story.s01e01.HD720p.WEB-DL.Rus.Eng.BaibaKo.tv.mkv
Format : Matroska
Format version : Version 4 / Version 2
File size : 742 MiB
Duration : 21mn 32s
Overall bit rate : 4 814 Kbps
Encoded date : UTC 2014-10-02 01:24:28
Writing application : mkvmerge v6.7.0 ('Back to the Ground') 64bit built on Jan 8 2014 15:10:52
Writing library : libebml v1.3.0 + libmatroska v1.4.1

Video
ID : 1
Format : AVC
Format/Info : Advanced Video Codec
Format profile : High@L3.1
Format settings, CABAC : No
Format settings, ReFrames : 2 frames
Format settings, GOP : N=1
Codec ID : V_MPEG4/ISO/AVC
Duration : 21mn 32s
Bit rate : 3 950 Kbps
Width : 1 280 pixels
Height : 720 pixels
Display aspect ratio : 16:9
Frame rate mode : Constant
Frame rate : 23.976 fps
Color space : YUV
Chroma subsampling : 4:2:0
Bit depth : 8 bits
Scan type : Progressive
Bits/(Pixel*Frame) : 0.179
Stream size : 609 MiB (82%)
Language : English
Default : Yes
Forced : No
Color primaries : BT.709
Transfer characteristics : BT.709
Matrix coefficients : BT.709

Audio #1
ID : 2
Format : AC-3
Format/Info : Audio Coding 3
Mode extension : CM (complete main)
Format settings, Endianness : Big
Codec ID : A_AC3
Duration : 21mn 32s
Bit rate mode : Constant
Bit rate : 384 Kbps
Channel(s) : 6 channels
Channel positions : Front: L C R, Side: L R, LFE
Sampling rate : 48.0 KHz
Bit depth : 16 bits
Compression mode : Lossy
Stream size : 59.2 MiB (8%)
Language : Russian
Default : Yes
Forced : No

Audio #2
ID : 3
Format : AC-3
Format/Info : Audio Coding 3
Mode extension : CM (complete main)
Format settings, Endianness : Big
Codec ID : A_AC3
Duration : 21mn 32s
Bit rate mode : Constant
Bit rate : 384 Kbps
Channel(s) : 6 channels
Channel positions : Front: L C R, Side: L R, LFE
Sampling rate : 48.0 KHz
Bit depth : 16 bits
Compression mode : Lossy
Stream size : 59.2 MiB (8%)
Language : English
Default : No
Forced : No

Внимание! Раздача ведётся путём добавления новых серий; при каждом добавлении создаётся новый торрент-файл. Чтобы начать дозакачку новой серии, пользователям необходимо сделать следующее:
(1) остановить скачивание,
(2) удалить старый торрент-файл у себя из клиента (старые серии удалять не надо),
(3) скачать новый торрент-файл и запустить его у себя в клиенте вместо старого, при этом указать клиенту путь в старую папку куда и должно происходить скачивание новых серий.
Ваш клиент при этом должен произвести хеширование (проверку) старой папки (если не производит сам - помогите ему сделать это), и будет докачивать только те серии которых у вас ещё нет. Старые серии при этом не удаляются, а продолжают раздаваться!
Eсли вы уже удалили старые серии, то предотвратить повторную закачку старых серий можно, отжав галочку в соответствующих местах при запуске нового торрента.
Добавил с 9-11 серии!Обновите торрент!pb.wtf



Скачать Манхэттенская история любви через торрент http://pic.kartinco.top/images/8/vf7rw.jpg Скачать фильм Манхэттенская история любви через торрент бесплантно в хорошем качестве Описание: Главные герои — парень и девушка, которые познакомились на свидании вслепую. Их первое свидание с треском провалилось, но ... 10 10 4
Info! Золотая раздача, скачанное не засчитывается.
Торрент: Зарегистрирован [2015-02-12 16:23] · скачан: 13 раз
Статус: √ проверено
Размер: 7.97 GB
Как cкачать? Как скачать Манхэттенская история любви через торрент | qTorrent

% Раздел Тема Автор DL S | L
Зарубежные сериалы [ 3.14 GB ] Манхэттенская история любви / Manhattan Love Story / Сезон: 1 / Серии: 1-11 из 11 [2014 WEB-DLRip] MVO +Original Assasinca Скачать
1 | 0


Последний раз редактировалось: lug30 (2015-02-12 16:52), всего редактировалось 3 раз(а)

28-11-2019 20:33  

Отключить всю рекламу на сайте

20-01-2015 14:34 Манхэттенская история любви Скачать торрент  

Добавил с 6-8 серии!Обновите торрент!pb.wtf



12-02-2015 16:24 Манхэттенская история любви Скачать торрент  

Добавил с 9-11 серии!Обновите торрент!pb.wtf



12-02-2015 16:42 Манхэттенская история любви Скачать торрент  

lug30 писал(а):

Добавил с 9-11 серии!Обновите торрент!

исправьте, 11 серий в сезоне...не 13pb.wtf



12-02-2015 16:53 Манхэттенская история любви Скачать торрент  

Assasinca писал(а):

lug30 писал(а):

Добавил с 9-11 серии!Обновите торрент!

исправьте, 11 серий в сезоне...не 13

Исправил!pb.wtf



    Дорогой пользователь! Огромная просьба, поблагодарите релизера, оцените раздачу и оставьте свои комментарий, если Вы скачали Манхэттенская история любви через торрент бесплатно! Внесите свою лепту в развитие PiratBit!
    Комментировать посты могут только пользователи прошедшие не сложную регистрацию
    Показать сообщения:    

    Манхэттенская история любви через торрент
    Скачать бесплатно Манхэттенская история любви
    Манхэттенская история любви скачать торрент
    Манхэттенская история любви смотреть онлайн
    Cкачать фильм Манхэттенская история любви бесплатно
    Манхэттенская история любви скачать торрент в хорошем качестве
    Манхэттенская история любви смотреть онлайн бесплатно в хорошем качестве


    Вы не можете начинать темы
    Вы не можете отвечать на сообщения
    Вы не можете редактировать свои сообщения
    Вы не можете удалять свои сообщения
    Вы не можете голосовать в опросах
    Вы не можете прикреплять файлы к сообщениям
    Вы можете скачивать файлы