Ссылка на приватное зеркало нашего сайта всего за 1$. Внимание количество ограничено!!!

2 сезон

iTunes

1 сезон

1

iTunes

iTunes

iTunes

1 сезон

RePack

30

ИГРА 18+

pack

ВАЖНО

!!Акция!!

Alien_RageХит недели

RePack

MK11
pack

Забери бонус

RePack

jed

!!Акция!!

Alien_Rage

RePack

fifa19

RePack

Assassins Creed: Odyssey

RePack

NEED FOR SPEED™ PAYBACK

4 сезон

9 сезон

Бесстыжие 9 сезон

Все сериалы

все сериалы на PB.wtf

RePack

FAR CRY 5
  

Король Нью-Йорка / King of New York (Абель Феррара) [1990 г., триллер, криминал, BDRip 1080p, MVO, DVO, AVO] pb.wtf

Король Нью-Йорка через торрент pb.wtf

Размер: 21 GB | Добавлен: 5 лет 9 мес. назад | Торрент скачан:24 раза
Скачать  

01-01-2015 13:08 Король Нью-Йорка Скачать торрент  

Король Нью-Йорка / King of New York
Год выпуска: 1990
Страна: Италия, США, Великобритания
Жанр: триллер, криминал
Продолжительность: 01:43:11
Перевод: Профессиональный многоголосый, Двухголосый закадровый, Одноголосый закадровый
Субтитры: Russian, English

Режиссер: Абель Феррара
Продюссер: Аугусто Каминито, Мэри Кэйн, Джей Жюльен
Сценарий: Николас Сейнт-Джон
Бюджет: $2 554 476
Премьера в мире: 18 июля 1990

IMDB 7.00 (20 947)


В ролях: Кристофер Уокен, Дэвид Карузо, Лоренс Фишбёрн, Виктор Арго, Уэсли Снайпс, Джанет Джулиан, Джои Чин, Джанкарло Эспозито, Пол Кальдерон, Стив Бушеми

Описание: Выйдя из тюрьмы, гангстер Фрэнк Уайт объявляет, что берет под свой контроль всю торговлю наркотиками в Нью-Йорке и уничтожит всех, кто встанет на его пути. Нью-Йорк становится ареной кровавых разборок за рынок сбыта наркотиков стоимостью более чем в миллиард долларов.Фрэнк и его банда, состоящая в основном из черных, методично уничтожает боссов колумбийских, итальянских и китайских группировок. В своей штаб-квартире в роскошных апартаментах отеля Плаза под защитой двух прелестных телохранительниц Фрэнк провозглашает себя королем Нью-Йорка. Полиция, неспособная справиться с Фрэнком, объявляет ему настоящую войну...

Доп. информация: Сохранены оригинальные чаптеры как на Blu-ray.

Качество: BDRip 1080p
Формат: MKV
Видео кодек: AVC
Аудио кодек: AC3 / DTS
Видео: AVC, 1920x1080 (16:9), 23.976 fps, 22140 kbps
Аудио#1: Russian: 48 kHz, AC3, 3/2 (L,C,R,l,r) + LFE ch, ~384.00 kbps avg |Многоголосый закадровый, Престиж|
Аудио#2: Russian: 48 kHz/24-bit, DTS, 3/2 (L,C,R,l,r) + LFE ch, ~1509.00 kbps avg |Двухголосый закадровый, Гланц и Королёва|
Аудио#3: Russian: 48 kHz, AC3, 2/0 (L,R) ch, ~192.00 kbps avg |Многоголосый закадровый, Екатеринбург арт|
Аудио#4: Russian: 48 kHz/24-bit, DTS, 3/2 (L,C,R,l,r) + LFE ch, ~1509.00 kbps avg |Одноголосый закадровый, Михалёв|
Аудио#5: Russian: 48 kHz/24-bit, DTS, 3/2 (L,C,R,l,r) + LFE ch, ~1509.00 kbps avg |Одноголосый закадровый, Живов|
Аудио#6: Russian: 48 kHz, AC3, 2/0 (L,R) ch, ~192.00 kbps avg |Одноголосый закадровый, Прямостанов|
Аудио#7: English: 48 kHz/24-bit, DTS, 3/2 (L,C,R,l,r) + LFE ch,~1509.00 kbps avg
General
Unique ID : 243278060336750463235280673224116935440 (0xB705A66E5CD1ACA0989B72A8E7A01B10)
Complete name : /home/sb1855/files/King.Of.New.York.1990.1080p.BluRay.6xRus.3xEng.HDCLUB.mkv
Format : Matroska
Format version : Version 2
File size : 21.0 GiB
Duration : 1h 43mn
Overall bit rate : 29.1 Mbps
Movie name : King Of New York (1990) - Release for HDCLUB
Encoded date : UTC 2014-12-20 22:13:42
Writing application : mkvmerge v5.7.0 ('The Whirlwind') built on Jul 8 2012 20:08:51
Writing library : libebml v1.2.3 + libmatroska v1.3.0

Video
ID : 1
Format : AVC
Format/Info : Advanced Video Codec
Format profile : High@L4.1
Format settings, CABAC : Yes
Format settings, ReFrames : 4 frames
Codec ID : V_MPEG4/ISO/AVC
Duration : 1h 43mn
Width : 1 920 pixels
Height : 1 080 pixels
Display aspect ratio : 16:9
Frame rate : 23.976 fps
Color space : YUV
Chroma subsampling : 4:2:0
Bit depth : 8 bits
Scan type : Progressive
Writing library : x264 core 128 r2216kMod 198a7ea
Encoding settings : cabac=1 / ref=4 / deblock=1:-3:-3 / analyse=0x3:0x113 / me=umh / subme=9 / psy=1 / fade_compensate=0.00 / psy_rd=1.15:0.00 / mixed_ref=1 / me_range=16 / chroma_me=1 / trellis=2 / 8x8dct=1 / cqm=0 / deadzone=21,11 / fast_pskip=0 / chroma_qp_offset=-2 / threads=6 / lookahead_threads=1 / sliced_threads=0 / nr=0 / decimate=0 / interlaced=0 / bluray_compat=0 / constrained_intra=0 / bframes=8 / b_pyramid=2 / b_adapt=2 / b_bias=0 / direct=3 / weightb=1 / open_gop=0 / weightp=2 / keyint=250 / keyint_min=23 / scenecut=40 / intra_refresh=0 / rc=crf / mbtree=0 / crf=18.0000 / qcomp=0.70 / qpmin=0 / qpmax=69 / qpstep=4 / ip_ratio=1.30 / pb_ratio=1.20 / aq=1:0.80
Language : English
Default : Yes
Forced : No

Audio #1
ID : 2
Format : AC-3
Format/Info : Audio Coding 3
Mode extension : CM (complete main)
Format settings, Endianness : Big
Codec ID : A_AC3
Duration : 1h 43mn
Bit rate mode : Constant
Bit rate : 384 Kbps
Channel(s) : 6 channels
Channel positions : Front: L C R, Side: L R, LFE
Sampling rate : 48.0 KHz
Bit depth : 16 bits
Compression mode : Lossy
Stream size : 283 MiB (1%)
Title : |???????????? ??????????, ???????|
Language : Russian
Default : Yes
Forced : No

Audio #2
ID : 3
Format : DTS
Format/Info : Digital Theater Systems
Codec ID : A_DTS
Duration : 1h 43mn
Bit rate mode : Constant
Bit rate : 1 510 Kbps
Channel(s) : 6 channels
Channel positions : Front: L C R, Side: L R, LFE
Sampling rate : 48.0 KHz
Bit depth : 24 bits
Compression mode : Lossy
Stream size : 1.09 GiB (5%)
Title : |??????????? ??????????, ????? ? ????????|
Language : Russian
Default : No
Forced : No

Audio #3
ID : 4
Format : AC-3
Format/Info : Audio Coding 3
Mode extension : CM (complete main)
Format settings, Endianness : Big
Codec ID : A_AC3
Duration : 1h 43mn
Bit rate mode : Constant
Bit rate : 192 Kbps
Channel(s) : 2 channels
Channel positions : Front: L R
Sampling rate : 48.0 KHz
Bit depth : 16 bits
Compression mode : Lossy
Stream size : 142 MiB (1%)
Title : |???????????? ??????????, ???????????? ???|
Language : Russian
Default : No
Forced : No

Audio #4
ID : 5
Format : DTS
Format/Info : Digital Theater Systems
Codec ID : A_DTS
Duration : 1h 43mn
Bit rate mode : Constant
Bit rate : 1 510 Kbps
Channel(s) : 6 channels
Channel positions : Front: L C R, Side: L R, LFE
Sampling rate : 48.0 KHz
Bit depth : 24 bits
Compression mode : Lossy
Stream size : 1.09 GiB (5%)
Title : |??????????? ??????????, ???????|
Language : Russian
Default : No
Forced : No

Audio #5
ID : 6
Format : DTS
Format/Info : Digital Theater Systems
Codec ID : A_DTS
Duration : 1h 43mn
Bit rate mode : Constant
Bit rate : 1 510 Kbps
Channel(s) : 6 channels
Channel positions : Front: L C R, Side: L R, LFE
Sampling rate : 48.0 KHz
Bit depth : 24 bits
Compression mode : Lossy
Stream size : 1.09 GiB (5%)
Title : |??????????? ??????????, ?????|
Language : Russian
Default : No
Forced : No

Audio #6
ID : 7
Format : AC-3
Format/Info : Audio Coding 3
Mode extension : CM (complete main)
Format settings, Endianness : Big
Codec ID : A_AC3
Duration : 1h 43mn
Bit rate mode : Constant
Bit rate : 192 Kbps
Channel(s) : 2 channels
Channel positions : Front: L R
Sampling rate : 48.0 KHz
Bit depth : 16 bits
Compression mode : Lossy
Stream size : 142 MiB (1%)
Title : |??????????? ??????????, ???????????|
Language : Russian
Default : No
Forced : No

Audio #7
ID : 8
Format : DTS
Format/Info : Digital Theater Systems
Codec ID : A_DTS
Duration : 1h 43mn
Bit rate mode : Constant
Bit rate : 1 510 Kbps
Channel(s) : 6 channels
Channel positions : Front: L C R, Side: L R, LFE
Sampling rate : 48.0 KHz
Bit depth : 24 bits
Compression mode : Lossy
Stream size : 1.09 GiB (5%)
Language : English
Default : No
Forced : No

Audio #8
ID : 9
Format : AAC
Format/Info : Advanced Audio Codec
Format profile : LC
Codec ID : A_AAC
Duration : 1h 43mn
Channel(s) : 2 channels
Channel positions : Front: L R
Sampling rate : 48.0 KHz
Compression mode : Lossy
Title : Commentary
Language : English
Default : No
Forced : No

Audio #9
ID : 10
Format : AAC
Format/Info : Advanced Audio Codec
Format profile : LC
Codec ID : A_AAC
Duration : 1h 43mn
Channel(s) : 2 channels
Channel positions : Front: L R
Sampling rate : 48.0 KHz
Compression mode : Lossy
Title : Commentary
Language : English
Default : No
Forced : No

Text #1
ID : 11
Format : UTF-8
Codec ID : S_TEXT/UTF8
Codec ID/Info : UTF-8 Plain Text
Language : Russian
Default : No
Forced : No

Text #2
ID : 12
Format : UTF-8
Codec ID : S_TEXT/UTF8
Codec ID/Info : UTF-8 Plain Text
Title : SDH
Language : English
Default : No
Forced : No

Menu
00:00:00.000 : en:Chapter 1
00:08:22.585 : en:Chapter 2
00:18:27.064 : en:Chapter 3
00:25:56.889 : en:Chapter 4
00:34:39.911 : en:Chapter 5
00:42:57.784 : en:Chapter 6
00:51:27.626 : en:Chapter 7
00:59:57.344 : en:Chapter 8
01:07:26.209 : en:Chapter 9
01:20:29.616 : en:Chapter 10
01:30:08.945 : en:Chapter 11
01:39:50.860 : en:Chapter 12

pb.wtf



Скачать Король Нью-Йорка через торрент http://pic.kartinco.top/images/8/eaxbc.jpg Скачать фильм Король Нью-Йорка через торрент бесплантно в хорошем качестве Описание: Выйдя из тюрьмы, гангстер Фрэнк Уайт объявляет, что берет под свой контроль всю торговлю наркотиками в Нью-Йорке и уничтожит ... 9.5 10 6
Торрент: Зарегистрирован [2015-01-01 13:08] · скачан: 24 раз
Статус: √ проверено
Размер: 21 GB
Как cкачать? Как скачать Король Нью-Йорка через торрент | qTorrent

% Раздел Тема Автор DL S | L
Фильмы [HD 720p, 1080p] (Хороший звук DUB, MVO) [ 18.64 GB ] Король Нью-Йорка / King of New York [1990 BDRip 1080p by msltel] 3 x MVO 3 x DVO 5 x AVO msltel Скачать
1 | 0
Фильмы [HD 720p, 1080p] (Хороший звук DUB, MVO) [ 7.59 GB ] Король Нью-Йорка / King of New York [1990 BDRip 720p by msltel] 3 x MVO 3 x DVO 5 x AVO msltel Скачать
3 | 0
Фильмы до 2000 г. [ 1.53 GB ] Король Нью-Йорка / King of New York [1990 BDRip] feldeger Скачать
1 | 0

28-11-2019 20:33  

Отключить всю рекламу на сайте

    Дорогой пользователь! Огромная просьба, поблагодарите релизера, оцените раздачу и оставьте свои комментарий, если Вы скачали Король Нью-Йорка через торрент бесплатно! Внесите свою лепту в развитие PiratBit!
    Комментировать посты могут только пользователи прошедшие не сложную регистрацию
    Показать сообщения:    

    Король Нью-Йорка через торрент
    Скачать бесплатно Король Нью-Йорка
    Король Нью-Йорка скачать торрент
    Король Нью-Йорка смотреть онлайн
    Cкачать фильм Король Нью-Йорка бесплатно
    Король Нью-Йорка скачать торрент в хорошем качестве
    Король Нью-Йорка смотреть онлайн бесплатно в хорошем качестве


    Вы не можете начинать темы
    Вы не можете отвечать на сообщения
    Вы не можете редактировать свои сообщения
    Вы не можете удалять свои сообщения
    Вы не можете голосовать в опросах
    Вы не можете прикреплять файлы к сообщениям
    Вы можете скачивать файлы