Ссылка на приватное зеркало нашего сайта всего за 1$. Внимание количество ограничено!!!

2 сезон

iTunes

1 сезон

1

iTunes

iTunes

iTunes

1 сезон

RePack

30

ИГРА 18+

pack

ВАЖНО

!!Акция!!

Alien_RageХит недели

RePack

MK11
pack

Забери бонус

RePack

jed

!!Акция!!

Alien_Rage

RePack

fifa19

RePack

Assassins Creed: Odyssey

RePack

NEED FOR SPEED™ PAYBACK

4 сезон

9 сезон

Бесстыжие 9 сезон

Все сериалы

все сериалы на PB.wtf

RePack

FAR CRY 5
  

Дом спящих красавиц (Сергей Комаров) [2014 г., Мелодрама, SATRip] pb.wtf

Дом спящих красавиц через торрент pb.wtf

Размер: 2.04 GB | Добавлен: 5 лет 9 мес. назад | Торрент скачан:174 раза
Скачать  

01-01-2015 14:33 Дом спящих красавиц Скачать торрент  

Дом спящих красавицГод выпуска: 2014
Страна: Россия КК "Русское" ЗАО "СТУДИЯ АВАНГАРД"
Жанр: Мелодрама
Продолжительность: 2 х ~ 01:30:00

Режиссер: Сергей Комаров
Продюссер: Александр Кушаев, Ирина Смирнова
Сценарий: Наталия Павловская

Премьера в мире: 6 сентября 2014 В ролях: Марина Ворожищева, Людмила Аринина, Ольга Науменко, Евгения Дмитриева, Сергей Перегудов, Роман Полянский, Валентина Панина, Владимир Коренев, Валерий Новиков

Описание: В старинном особняке в центре столицы живёт необычная семья Протопоповых. В ней нет мужчин, а четыре поколения женщин носят одно и то же редкое отчество Игнатьевна – по имени прапрадеда, единственного порядочного мужчины в роду. Уверенность женщин старшего поколения, что в современном мире не осталось достойных мужчин, передалась и 23-летней Марине. Девушка уже была влюблена в красавчика Павла, успела забеременеть и быстро в нём разочароваться. И, казалось бы, ждала её такая же судьба, как и всех женщин семьи. Но, не желая продолжать грустную традицию и становиться матерью-одиночкой, Марина решает избавиться от ребёнка. Срочная командировка в деревню и встреча там с необычным парнем Андреем неожиданно рушит все её планы...

Качество: SATRip
Формат: AVI
Видео кодек: DivX
Аудио кодек: MP3
Видео: DivX 5, 720x400, 25fps, 1500kbps
Аудио: MP3, 48000Hz, stereo, 128kbps
Релиз от: ВИТ555
Скриншоты:
скриншот  скриншот  скриншот  скриншот  скриншот  




Complete name : H:\80\Dom.spyaschih.krasavic.2014.SATRip\Dom.spyaschih.krasavic.01.SATRip.avi
Format : AVI
Format/Info : Audio Video Interleave
File size : 1.02 GiB
Duration : 1h 28mn
Overall bit rate : 1 638 Kbps
Writing library : VirtualDub build 35491/release

Video
ID : 0
Format : MPEG-4 Visual
Format settings, BVOP : 1
Format settings, QPel : No
Format settings, GMC : No warppoints
Format settings, Matrix : Default (H.263)
Muxing mode : Packed bitstream
Codec ID : DX50
Codec ID/Hint : DivX 5
Duration : 1h 28mn
Bit rate : 1 501 Kbps
Width : 720 pixels
Height : 400 pixels
Display aspect ratio : 16:9
Frame rate : 25.000 fps
Color space : YUV
Chroma subsampling : 4:2:0
Bit depth : 8 bits
Scan type : Progressive
Compression mode : Lossy
Bits/(Pixel*Frame) : 0.208
Stream size : 952 MiB (92%)
Writing library : DivX 6.8.5 (UTC 2009-08-20)

Audio
ID : 1
Format : MPEG Audio
Format version : Version 1
Format profile : Layer 3
Mode : Joint stereo
Codec ID : 55
Codec ID/Hint : MP3
Duration : 1h 28mn
Bit rate mode : Constant
Bit rate : 128 Kbps
Channel(s) : 2 channels
Sampling rate : 48.0 KHz
Compression mode : Lossy
Stream size : 81.2 MiB (8%)
Alignment : Split accross interleaves
Interleave, duration : 40 ms (1.00 video frame)
Interleave, preload duration : 500 ms

Женский сериал! pb.wtf



Скачать Дом спящих красавиц через торрент http://pic.kartinco.top/images/8/sgl66.jpg Скачать фильм Дом спящих красавиц через торрент бесплантно в хорошем качестве Описание: В старинном особняке в центре столицы живёт необычная семья Протопоповых. В ней нет мужчин, а четыре поколения женщин носят одно ... 8.9 10 15
Торрент: Зарегистрирован [2015-01-01 14:33] · скачан: 174 раз
Статус: √ проверено
Размер: 2.04 GB
Как cкачать? Как скачать Дом спящих красавиц через торрент | qTorrent

28-11-2019 20:33  

Отключить всю рекламу на сайте

    Дорогой пользователь! Огромная просьба, поблагодарите релизера, оцените раздачу и оставьте свои комментарий, если Вы скачали Дом спящих красавиц через торрент бесплатно! Внесите свою лепту в развитие PiratBit!
    Комментировать посты могут только пользователи прошедшие не сложную регистрацию
    Показать сообщения:    

    Дом спящих красавиц через торрент
    Скачать бесплатно Дом спящих красавиц
    Дом спящих красавиц скачать торрент
    Дом спящих красавиц смотреть онлайн
    Cкачать фильм Дом спящих красавиц бесплатно
    Дом спящих красавиц скачать торрент в хорошем качестве
    Дом спящих красавиц смотреть онлайн бесплатно в хорошем качестве


    Вы не можете начинать темы
    Вы не можете отвечать на сообщения
    Вы не можете редактировать свои сообщения
    Вы не можете удалять свои сообщения
    Вы не можете голосовать в опросах
    Вы не можете прикреплять файлы к сообщениям
    Вы можете скачивать файлы