Присоединяйтесь к нам в Telegram!, здесь всегда актуальный адрес сайта, оперативная поддержка и многое другое!!

>

5.9

iTunes

7.4

iTunes

9.4

1 сезон

1

7.4

2 сезон

7.2

iTunes

7.3

1 сезон

13

6.1

iTunes

8.3

GOG

30

ULTIMATE

pack

9.9

Лицензия

ВАЖНО

ИГРА 18+

pack

7.3

RePack

MK11

7.7

RePack

jed

7.8

RePack

fifa19

8.5

RePack

RDR2

RePack

NEED FOR SPEED™ PAYBACK

5 сезон

9 сезон

Бесстыжие 9 сезон

Все сериалы

все сериалы на PB.wtf

RePack

FAR CRY 5

Anonymous, доброе утро, мы катастрофически не успеваем собрать деньги на оплату серверов, помогите нам пожалуйста 5,10,15р., для нас важна любая помощь . В качестве благодарности мы отключим Вам всю рекламу на сайте (укажите свой ник в строку Ваше имя)!

×
  
Magnet ссылка

Девушки Плейбоя / Playboys MASH-UP [2014 г., Adult music clips, WEB-DLRip 1080p, Оригинал] pb.wtf

Девушки Плейбоя через торрент pb.wtf

Размер: 10.94 GB | Добавлен: 6 лет 11 мес. назад | Торрент скачан:295 раз
Смотреть онлайн Девушки Плейбоя | Скачать    Ребята, помогите собрать деньги на оплату серверов!!!

01-01-2015 17:40 Девушки Плейбоя Скачать торрент  

Девушки Плейбоя / Playboys MASH-UP
Год выпуска: 2014
Страна: All World
Жанр: Adult music clips
Продолжительность: 04:04:22
Перевод: Оригинал

В ролях:

Natalia Starr, Lexi Marlow, Kimber Cox, Candace Leilani, Mandy Kay, Stefanie Knight, Lana James, Lindsey Pelas, Chelby Chesnes, Michaela Isizzu, Holly Gibbons, Natasha Anastasia, Nickie Ann & Sophia Knight и многие другие....

Описание:

Естественная красота, безупречное соблазнение, экзотические красавицы, лучшие костюмы, элегантный интим и всё это в Playboy's MASH-UP

Качество: WEB-DLRip 1080p
Формат: MP4
Видео кодек: MPEG4
Аудио кодек: AAC
Видео: AVC, 1920x1080 (16:9), 29.970 fps, 6 000 Kbps (0.097 bit/pixel)
Аудио#1: AAC LC, 48.0 KHz, 2 ch, 192 Kbps, CBR
скриншот   скриншот   скриншот   скриншот   скриншот   скриншот  
скриншот   скриншот   скриншот   скриншот   скриншот   скриншот  

Общее
Полное имя : F:\Раздача\Clip&concert\Playboys MASH-UP (2014)\all-naturals-mash-up-monday-nude.mp4
Формат : MPEG-4
Профиль формата : Base Media
Идентификатор кодека : isom
Размер файла : 165 Мбайт
Продолжительность : 3 м. 25 с.
Общий поток : 6719 Кбит/сек
Программа кодирования : Lavf54.3.100

Видео
Идентификатор : 1
Формат : AVC
Формат/Информация : Advanced Video Codec
Профиль формата : High@L4.1
Параметр CABAC формата : Да
Параметр ReFrames формата : 5 кадров
Идентификатор кодека : avc1
Идентификатор кодека/Информация : Advanced Video Coding
Продолжительность : 3 м. 25 с.
Битрейт : 6000 Кбит/сек
Ширина : 1920 пикселей
Высота : 1080 пикселей
Соотношение сторон : 16:9
Режим частоты кадров : Постоянный
Частота кадров : 29,970 кадров/сек
Цветовое пространство : YUV
Субдискретизация насыщенности : 4:2:0
Битовая глубина : 8 бит
Тип развёртки : Прогрессивная
Бит/(Пиксели*Кадры) : 0.097
Размер потока : 153 Мбайт (93%)
Библиотека кодирования : x264 core 120 r2164 da19765
Настройки программы : cabac=1 / ref=5 / deblock=1:0:0 / analyse=0x3:0x113 / me=umh / subme=8 / psy=1 / psy_rd=1.00:0.00 / mixed_ref=1 / me_range=16 / chroma_me=1 / trellis=1 / 8x8dct=1 / cqm=0 / deadzone=21,11 / fast_pskip=1 / chroma_qp_offset=-2 / threads=36 / sliced_threads=0 / nr=0 / decimate=1 / interlaced=0 / bluray_compat=0 / constrained_intra=0 / bframes=3 / b_pyramid=2 / b_adapt=2 / b_bias=0 / direct=3 / weightb=1 / open_gop=0 / weightp=2 / keyint=60 / keyint_min=6 / scenecut=40 / intra_refresh=0 / rc_lookahead=50 / rc=abr / mbtree=1 / bitrate=6000 / ratetol=1.0 / qcomp=0.60 / qpmin=0 / qpmax=69 / qpstep=4 / ip_ratio=1.40 / aq=1:1.00
Дата пометки : UTC 2013-10-23 22:24:29

Аудио
Идентификатор : 2
Формат : AAC
Формат/Информация : Advanced Audio Codec
Профиль формата : LC
Идентификатор кодека : 40
Продолжительность : 3 м. 25 с.
Вид битрейта : Постоянный
Битрейт : 192 Кбит/сек
Каналы : 2 канала
Расположение каналов : Front: L R
Частота : 48,0 КГц
Метод сжатия : С потерями
Размер потока : 4,71 Мбайт (3%)
Дата пометки : UTC 2013-10-23 22:24:29

Прочее #1
Идентификатор : 65536
Тип : Hint
Формат : RTP
Идентификатор кодека : rtp
Продолжительность : 3 м. 25 с.
Дата кодирования : UTC 2013-10-23 22:24:28
Дата пометки : UTC 2013-10-23 22:24:29

Прочее #2
Идентификатор : 65537
Тип : Hint
Формат : RTP
Идентификатор кодека : rtp
Продолжительность : 3 м. 25 с.
Дата кодирования : UTC 2013-10-23 22:24:28
Дата пометки : UTC 2013-10-23 22:24:29
Вид битрейта : VBR

скриншот  pb.wtf



Скачать Девушки Плейбоя через торрент https://pic1.kartinco.top/images/81/c5vkl.jpg Скачать, смотреть онлайн Девушки Плейбоя бесплантно в хорошем качестве Описание: Естественная красота, безупречное соблазнение, экзотические красавицы, лучшие костюмы, элегантный интим и всё это в Playboy's ... 9.1 10 20
Info! Золотая раздача, скачанное не засчитывается.
Торрент: Зарегистрирован [2015-01-01 17:40] · скачан: 295 раз
Статус: √ проверено
Размер: 10.94 GB
Как cкачать? Как скачать Девушки Плейбоя через торрент | UTorrent

28-11-2019 20:33  

Отключить всю рекламу на сайте

    Дорогой пользователь! Огромная просьба, поблагодарите релизера, оцените раздачу и оставьте свои комментарий, если Вы скачали Девушки Плейбоя через торрент бесплатно!
    Комментировать посты могут только пользователи прошедшие не сложную регистрацию
    Показать сообщения:    

    Девушки Плейбоя через торрент
    Скачать бесплатно Девушки Плейбоя
    Девушки Плейбоя скачать торрент
    Девушки Плейбоя смотреть онлайн
    Cкачать фильм Девушки Плейбоя бесплатно
    Девушки Плейбоя скачать торрент в хорошем качестве
    Девушки Плейбоя смотреть онлайн бесплатно в хорошем качестве


    Вы не можете начинать темы
    Вы не можете отвечать на сообщения
    Вы не можете редактировать свои сообщения
    Вы не можете удалять свои сообщения
    Вы не можете голосовать в опросах
    Вы не можете прикреплять файлы к сообщениям
    Вы можете скачивать файлы