Ссылка на приватное зеркало нашего сайта всего за 1$. Внимание количество ограничено!!!

2 сезон

iTunes

1 сезон

1

2 сезон

2 сезон

iTunes

1 сезон

RePack

30

Ultimate

ВАЖНО

ИГРА 18+

pack

RePack

MK11
pack

Забери бонус

RePack

jed

!!Акция!!

Alien_Rage

RePack

fifa19

RePack

Assassins Creed: Odyssey

RePack

NEED FOR SPEED™ PAYBACK

4 сезон

9 сезон

Бесстыжие 9 сезон

Все сериалы

все сериалы на PB.wtf

RePack

FAR CRY 5
  

Викинги / Northmen - A Viking Saga (Клаудио Фах / Claudio Fäh) [2014, Швейцария, Германия, ЮАР, боевик, приключения, WEB-DL 720p, Дубляж] iTunes pb.wtf

Викинги через торрент pb.wtf

Размер: 2.94 GB | Добавлен: 5 лет 10 мес. назад | Торрент скачан:1050 раз
Скачать  

02-01-2015 03:11 Викинги Скачать торрент  

Викинги / Northmen - A Viking Saga
«A band of Vikings cross enemy lines. And a panicked race begins. The losers will pay with their lives»


  • Год выпуска: 2014
  • Страна: Швейцария, Германия, ЮАР
  • Жанр: боевик, приключения
  • Продолжительность: 01:34:00
  • Перевод: Дубляж - [Лицензия / iTunes]

  • Режиссер: Клаудио Фах / Claudio Fäh
  • В ролях:

    Джеймс Нортон (Bjorn), Райан Квантен (Conall), Чарли Мерфи (Inghean), Эд Скрейн (Hjorr), Том Хоппер (Asbjorn), Лео Грегори (Jorund), Кен Дюкен (Thorald), Анатоль Таубман (Bovarr), Николас Расенти (Gostun), Йохан Хегг (Valli), Дэнни Кеог (King Dunchaid), Джо Ваз (Murdill)

  • Описание:
    Группа викингов оказалась выброшенной на побережье в тылу врага после того, как в ужасном шторме их судно пошло ко дну. Их единственный шанс выжить - это найти путь к поселению викингов. Но для этого им придется пересечь незнакомые и враждебные земли, на которых они никогда не были.
  • Рейтинг:



  • Качество: WEB-DL 720p
  • Формат: :MKV
  • Видео кодек: AVC
  • Аудио кодек: AC3
  • Видео: 1280x534 (2.40:1), 4100 kbps, 25 fps, 0,240 bpp
  • Аудио: русский / 5.1 / 48 kHz / 384 kbps / 16 bit ||
  • Релиз от: GEKADOL

    Код:

    General
    Unique ID                                : 220975500655287020431707737166767905978 (0xA63E5557A854493287FE83B86066DCBA)
    Complete name                            : I:\V1k1ng1.2014.D.WEB-DL.720p.mkv
    Format                                   : Matroska
    Format version                           : Version 2
    File size                                : 2.94 GiB
    Duration                                 : 1h 34mn
    Overall bit rate                         : 4 485 Kbps
    Encoded date                             : UTC 2015-01-01 02:03:46
    Writing application                      : mkvmerge v7.4.0 ('Circles') 64bit built on Dec 12 2014 12:19:56
    Writing library                          : libebml v1.3.0 + libmatroska v1.4.1
    DURATION                                 : 01:34:00.128000000
    NUMBER_OF_FRAMES                         : 176254
    NUMBER_OF_BYTES                          : 270726144
    _STATISTICS_WRITING_APP                  : mkvmerge v7.4.0 ('Circles') 64bit built on Dec 12 2014 12:19:56
    _STATISTICS_WRITING_DATE_UTC             : 2015-01-01 02:03:46
    _STATISTICS_TAGS                         : BPS DURATION NUMBER_OF_FRAMES NUMBER_OF_BYTES

    Video
    ID                                       : 1
    Format                                   : AVC
    Format/Info                              : Advanced Video Codec
    Format profile                           : High@L4.1
    Format settings, CABAC                   : Yes
    Format settings, ReFrames                : 4 frames
    Codec ID                                 : V_MPEG4/ISO/AVC
    Duration                                 : 1h 34mn
    Bit rate                                 : 4 100 Kbps
    Width                                    : 1 280 pixels
    Height                                   : 534 pixels
    Display aspect ratio                     : 2.40:1
    Frame rate                               : 25.000 fps
    Color space                              : YUV
    Chroma subsampling                       : 4:2:0
    Bit depth                                : 8 bits
    Scan type                                : Progressive
    Bits/(Pixel*Frame)                       : 0.240
    Stream size                              : 2.63 GiB (89%)
    Writing library                          : x264 core 142 r2491 24e4fed
    Encoding settings                        : cabac=1 / ref=4 / deblock=1:0:0 / analyse=0x3:0x3 / me=dia / subme=1 / psy=1 / psy_rd=1.00:0.00 / mixed_ref=0 / me_range=16 / chroma_me=1 / trellis=0 / 8x8dct=1 / cqm=0 / deadzone=21,11 / fast_pskip=1 / chroma_qp_offset=-2 / threads=18 / lookahead_threads=3 / sliced_threads=0 / nr=0 / decimate=1 / interlaced=0 / bluray_compat=0 / constrained_intra=0 / bframes=1 / b_pyramid=0 / b_adapt=1 / b_bias=0 / direct=1 / weightb=1 / open_gop=0 / weightp=1 / keyint=250 / keyint_min=25 / scenecut=40 / intra_refresh=0 / rc=2pass / mbtree=0 / bitrate=4100 / ratetol=1.0 / qcomp=0.60 / qpmin=0 / qpmax=69 / qpstep=4 / cplxblur=20.0 / qblur=0.5 / ip_ratio=1.40 / pb_ratio=1.30 / aq=2:1.00
    Language                                 : English
    Default                                  : Yes
    Forced                                   : No
    DURATION                                 : 01:34:00.120000000
    NUMBER_OF_FRAMES                         : 141003
    NUMBER_OF_BYTES                          : 2889899411
    _STATISTICS_WRITING_APP                  : mkvmerge v7.4.0 ('Circles') 64bit built on Dec 12 2014 12:19:56
    _STATISTICS_WRITING_DATE_UTC             : 2015-01-01 02:03:46
    _STATISTICS_TAGS                         : BPS DURATION NUMBER_OF_FRAMES NUMBER_OF_BYTES

    Audio
    ID                                       : 2
    Format                                   : AC-3
    Format/Info                              : Audio Coding 3
    Mode extension                           : CM (complete main)
    Codec ID                                 : A_AC3
    Duration                                 : 1h 34mn
    Bit rate mode                            : Constant
    Bit rate                                 : 384 Kbps
    Channel(s)                               : 6 channels
    Channel positions                        : Front: L C R, Side: L R, LFE
    Sampling rate                            : 48.0 KHz
    Bit depth                                : 16 bits
    Compression mode                         : Lossy
    Stream size                              : 258 MiB (9%)
    Language                                 : Russian
    Default                                  : Yes
    Forced                                   : No

    Menu
    00:00:00.000                             : en:Глава 1
    00:05:25.000                             : en:Глава 2
    00:10:57.000                             : en:Глава 3
    00:16:46.000                             : en:Глава 4
    00:22:32.000                             : en:Глава 5
    00:28:01.000                             : en:Глава 6
    00:33:39.000                             : en:Глава 7
    00:39:20.000                             : en:Глава 8
    00:45:19.000                             : en:Глава 9
    00:51:55.000                             : en:Глава 10
    00:58:45.000                             : en:Глава 11
    01:05:39.000                             : en:Глава 12
    01:12:05.000                             : en:Глава 13
    01:18:08.000                             : en:Глава 14
    01:24:37.000                             : en:Глава 15


    Скриншоты:



    pb.wtf



  • Скачать Викинги через торрент http://i67.fastpic.ru/big/2015/0102/65/a1e62a8f1d31da1654844b6137576265.jpg Скачать фильм Викинги через торрент бесплантно в хорошем качестве Описание: Группа викингов оказалась выброшенной на побережье в тылу врага после того, как в ужасном шторме их судно пошло ко дну. Их ... 9.4 10 27
    Торрент: Зарегистрирован [2015-01-02 03:11] · скачан: 1 050 раз
    Статус: √ проверено
    Размер: 2.94 GB
    Как cкачать? Как скачать Викинги через торрент | qTorrent

    % Раздел Тема Автор DL S | L
    Фильмы 2014 [DVDrip, WEB-DLRip, HDrip] [ 1.64 GB ] Викинги / Northmen - A Viking Saga [2014 Швейцария Германия ЮАР WEB-DLRip-AVC ] GEKADOL Скачать
    1 | 0
    Фильмы [HD 720p, 1080p] (Хороший звук DUB, MVO) [ 7.86 GB ] Викинги / Northmen - A Viking Saga [2014 BDRip 1080p Ворон Скачать
    1 | 0
    Фильмы 2014 [DVDrip, WEB-DLRip, HDrip] [ 1.46 GB ] Викинги / Northmen - A Viking Saga [2014 WEB-DLRip ] кэп Скачать
    1 | 0

    28-11-2019 20:33  

    Отключить всю рекламу на сайте

    02-01-2015 17:00 Викинги Скачать торрент  

    крутой фильм мне очень понравилось спасибоpb.wtf



    03-01-2015 11:43 Викинги Скачать торрент  

    Фильм зачет!pb.wtf



    03-01-2015 21:16 Викинги Скачать торрент  

    ценителям фентези: Фильм полное УГ!pb.wtf



    03-01-2015 22:37 Викинги Скачать торрент  

    какое то уг :)) В истории пишут что викинги никогда не отступали и тем более не трусили а тут сплошная беготня. Решили дать бой когда их осталось мало. баба колдун монах убийца :) че за бред )? Не ?pb.wtf



      Дорогой пользователь! Огромная просьба, поблагодарите релизера, оцените раздачу и оставьте свои комментарий, если Вы скачали Викинги через торрент бесплатно! Внесите свою лепту в развитие PiratBit!
      Комментировать посты могут только пользователи прошедшие не сложную регистрацию
      Показать сообщения:    

      Викинги через торрент
      Скачать бесплатно Викинги
      Викинги скачать торрент
      Викинги смотреть онлайн
      Cкачать фильм Викинги бесплатно
      Викинги скачать торрент в хорошем качестве
      Викинги смотреть онлайн бесплатно в хорошем качестве


      Вы не можете начинать темы
      Вы не можете отвечать на сообщения
      Вы не можете редактировать свои сообщения
      Вы не можете удалять свои сообщения
      Вы не можете голосовать в опросах
      Вы не можете прикреплять файлы к сообщениям
      Вы можете скачивать файлы